BitTorrentTracker PerecTracker.org
BitTorrentTracker PerecTracker.org
    
Регистрация  ·  Вход
 
 · 
Забыли пароль?

  • Сватовство гусара (Светлана Дружинина) [1980, музыкальная комедия, HDTVRip-AVC]

    Ответить на тему
     
    Автор Сообщение

    Light

    Создавать темы 28-Июл-2015 08:34

           

    [Цитировать]

    Сватовство гусара-Жанр: музыкальная комедия
    Год выпуска: 1980
    Продолжительность: 01:06:44-Режиссёр: Светлана Дружинина-В ролях:
    Михаил Боярский, Елена Коренева, Андрей Попов, Баадур Цуладзе, Сергей Иванов, Александр Баринов, Андрей Юшин
    Описание:
    По мотивам водевиля Н. Некрасова "Петербургский ростовщик". Молодой гусар и юная дочка ростовщика полюбили друг друга с первого взгляда. Но отец девушки до того любит деньги, что готов продать собственную дочь первому встречному, если тот дорого заплатит. Друзья гусара помогают ему проучить алчного старика.-Сэмпл | -Качество видео: HDTVRip-AVC / Сватовство гусара.1979.HDTV 1080i.mkv | Кинозал.ТВ, спасибо helgert
    Формат видео: MKV
    Видео: x264 (High@L4.1); 860x648, Display aspect ratio 1.327:1, 25.000 fps, 2924 Kbps
    Аудио: AC-3; 16 bit 48 Khz; 2.0ch 192 Kbps; CBR

    Исходник

    * На 22 секунды короче DVD, для показа подрезано несколько сцен на стыках рекламных вставок.
    ** В наличии Предупреждение о вреде курения. Реклама и ваньки-встаньки анонсов текущего и будущих показов отсутствуют.
    *** В исходнике 3 рассыпающихся кадра на отметке 00:29:44. Исправлено.

    MediaInfo

    -

    x264 log

    avs [info]: 860x648p 1:1 @ 25/1 fps (cfr)
    x264 [info]: using SAR=1/1
    x264 [info]: using cpu capabilities: MMX2 SSE2Fast SSSE3 SSE4.2
    x264 [info]: profile High, level 4.1
    x264 [info]: frame I:561 Avg QP:17.45 size: 64383
    x264 [info]: frame P:24102 Avg QP:19.93 size: 30158
    x264 [info]: frame B:75450 Avg QP:21.95 size: 9284
    x264 [info]: consecutive B-frames: 2.1% 3.6% 11.3% 29.4% 22.5% 29.1% 1.5% 0.5%
    x264 [info]: mb I I16..4: 0.8% 90.0% 9.2%
    x264 [info]: mb P I16..4: 0.2% 11.9% 1.1% P16..4: 38.4% 33.0% 15.2% 0.0% 0.0% skip: 0.3%
    x264 [info]: mb B I16..4: 0.0% 1.0% 0.1% B16..8: 44.0% 13.4% 3.6% direct: 7.4% skip:30.5% L0:38.9% L1:46.4% BI:14.8%
    x264 [info]: 8x8 transform intra:90.1% inter:68.4%
    x264 [info]: direct mvs spatial:99.5% temporal:0.5%
    x264 [info]: coded y,uvDC,uvAC intra: 96.8% 78.2% 38.8% inter: 38.1% 19.9% 4.8%
    x264 [info]: i16 v,h,dc,p: 14% 16% 8% 63%
    x264 [info]: i8 v,h,dc,ddl,ddr,vr,hd,vl,hu: 13% 7% 3% 10% 14% 14% 14% 12% 12%
    x264 [info]: i4 v,h,dc,ddl,ddr,vr,hd,vl,hu: 11% 7% 1% 9% 16% 16% 15% 12% 12%
    x264 [info]: i8c dc,h,v,p: 35% 24% 24% 17%
    x264 [info]: Weighted P-Frames: Y:12.0% UV:2.6%
    x264 [info]: ref P L0: 41.7% 13.2% 16.5% 6.1% 5.4% 3.7% 3.6% 2.1% 2.1% 1.7% 1.8% 1.6% 0.5% 0.0%
    x264 [info]: ref B L0: 83.8% 7.8% 2.6% 1.5% 1.1% 1.0% 0.7% 0.5% 0.4% 0.4% 0.2%
    x264 [info]: ref B L1: 96.9% 3.1%
    x264 [info]: kb/s:2923.71
    x264 [total]: encoded 100113 frames, 12.93 fps, 2923.71 kb/s
    -General
    Unique ID : 230651364228131500710726967967601733396 (0xAD85D63F9B814F5EBDA399F5E2D52F14)
    Complete name : Сватовство гусара.1979.mkv
    Format : Matroska
    Format version : Version 2
    File size : 1.45 GiB
    Duration : 1h 6mn
    Overall bit rate : 3 117 Kbps
    Movie name : «Сватовство гусара»
    Encoded date : UTC 2015-08-04 13:54:31
    Writing application : mkvmerge v5.8.0 ('No Sleep / Pillow') built on Sep 2 2012 15:37:04
    Writing library : libebml v1.2.3 + libmatroska v1.3.0
    Comment : HDTVRip-AVC
    Originally released : August 4th 2015
    Encoded by : george$t®
    Video
    ID : 1
    Format : AVC
    Format/Info : Advanced Video Codec
    Format profile : High@L4.1
    Format settings, CABAC : Yes
    Format settings, ReFrames : 12 frames
    Codec ID : V_MPEG4/ISO/AVC
    Duration : 1h 6mn
    Bit rate : 2 924 Kbps
    Width : 860 pixels
    Height : 648 pixels
    Display aspect ratio : 4:3
    Frame rate mode : Constant
    Frame rate : 25.000 fps
    Color space : YUV
    Chroma subsampling : 4:2:0
    Bit depth : 8 bits
    Scan type : Progressive
    Bits/(Pixel*Frame) : 0.210
    Stream size : 1.33 GiB (92%)
    Title : Сватовство гусара.1979
    Writing library : x264 core 146 r2538kMod 121396c
    Encoding settings : cabac=1 / ref=12 / deblock=1:-2:-1 / analyse=0x3:0x113 / me=umh / subme=10 / psy=1 / fade_compensate=0.00 / psy_rd=0.90:0.00 / mixed_ref=1 / me_range=24 / chroma_me=1 / trellis=2 / 8x8dct=1 / cqm=0 / deadzone=21,11 / fast_pskip=0 / chroma_qp_offset=-2 / threads=12 / lookahead_threads=2 / sliced_threads=0 / nr=0 / decimate=0 / interlaced=0 / bluray_compat=0 / constrained_intra=0 / fgo=0 / bframes=7 / b_pyramid=2 / b_adapt=2 / b_bias=0 / direct=3 / weightb=1 / open_gop=0 / weightp=2 / keyint=250 / keyint_min=25 / scenecut=40 / intra_refresh=0 / rc_lookahead=40 / rc=2pass / mbtree=0 / bitrate=2924 / ratetol=1.0 / qcomp=0.60 / qpmin=0 / qpmax=69 / qpstep=4 / cplxblur=20.0 / qblur=0.5 / vbv_maxrate=50000 / vbv_bufsize=62500 / nal_hrd=none / filler=0 / ip_ratio=1.30 / pb_ratio=1.30 / aq=1:0.70
    Language : Russian
    Default : Yes
    Forced : No
    Color primaries : BT.709
    Transfer characteristics : BT.709
    Matrix coefficients : BT.709
    Color range : Limited
    Audio
    ID : 2
    Format : AC-3
    Format/Info : Audio Coding 3
    Mode extension : CM (complete main)
    Format settings, Endianness : Big
    Codec ID : A_AC3
    Duration : 1h 6mn
    Bit rate mode : Constant
    Bit rate : 192 Kbps
    Channel(s) : 2 channels
    Channel positions : Front: L R
    Sampling rate : 48.0 KHz
    Bit depth : 16 bits
    Compression mode : Lossy
    Stream size : 91.7 MiB (6%)
    Title : AC-3; 16 bit 48 Khz; 2.0ch 192 Kbps; CBR
    Language : Russian
    Default : Yes
    Forced : No

    Скриншоты

    vs. source:vs. satrip-avc:
    http://perectracker.org/viewtopic.php?t=5050132
    Скачать .torrent

    Скачать торрент-файл бесплатно и на максимальной скорости!

    Как скачивать? · Что такое торрент? · Рейтинг и ограничения

    !ВНИМАНИЕ!
    Сайт не распространяет и не хранит электронные версии произведений, а занимается лишь лишь предоставлением доступа к создаваемому пользователями каталогу ссылок на торрент-файлы, которые содержат только списки хеш-сумм, убедительная просьба с жалобами обращаться напрямую к пользователю. Файлы для обмена на трекере предоставлены пользователями сайта, и администрация не несёт ответственности за их содержание. Просьба не заливать файлы, защищенные авторскими правами, а также файлы нелегального содержания!


    _________________
    [Профиль] [ЛС]
    Показать сообщения:    
    Ответить на тему

    Текущее время: Сегодня, в 02:38

    Часовой пояс: GMT + 2



    Вы не можете начинать темы
    Вы не можете отвечать на сообщения
    Вы не можете редактировать свои сообщения
    Вы не можете удалять свои сообщения
    Вы не можете голосовать в опросах
    Вы не можете прикреплять файлы к сообщениям
    Вы не можете скачивать файлы