BitTorrentTracker PerecTracker.org
BitTorrentTracker PerecTracker.org
    
Регистрация  ·  Вход
 
 · 
Забыли пароль?

  • Упс… Ной уплыл! / Ooops! Noah is Gone (Тоби Генкель, Шон МакКормак / Toby Genkel, Sean McCormack) [2015, мультфильм, комедия, приключения, HDRip] DVO + ENG

    Ответить на тему
     
    Автор Сообщение

    rechyn

    Создавать темы 28-Июл-2015 00:10

           

    [Цитировать]

    Упс… Ной уплыл!
    Ooops! Noah is Gone...
    Страна: Германия, Бельгия, Люксембург, Ирландия
    Жанр: мультфильм, комедия, приключения
    Продолжительность: 01:26:28
    Год выпуска: 2015-Перевод: Любительский двухголосый
    Русские субтитры: нет
    Режиссёр: Тоби Генкель, Шон МакКормак / Toby Genkel, Sean McCormack-Роли озвучивали: Дермот Магеннис, Каллум Малони, Тара Флинн, Пол Тайлак, Алан Стэнфорд, Эйлин Митен, Патрик Фицсимонс, Карла Бекер, Франциска Фриде-Описание: Грядет всемирный потоп, и старина Ной вот-вот отчалит. Самое время для зверей занять свои каюты. Но, увы, повезло не всем — кое-кто фейсконтроль не прошел. Теперь ему придется как следует постараться, чтобы перехитрить судьбу и заскочить на подножку уплывающего ковчега.-Релиз:
    | | -Качество: HDRip [BDRip (1080p)]
    Формат: AVI
    Видео: 720x384 (1.87:1), 24,000 fps, XviD 65 ~2 219 kbps avg, 0.33 bit/pixel
    Аудио: 48 kHz, AC3 Dolby Digital, 2/0 (L,R) ch, ~192 kbps
    Аудио: 48 kHz, AC3 Dolby Digital, 3/2 (L,C,R,l,r) + LFE ch, ~448 kbps avg |ENG| отдельно
    Субтитры: отсутствуют

    MI


    Общее
    Полное имя : E:\incarcare\rip gata\0oops.Noah.Uplil.2015.HDRip\0oops.Noah.Uplil.2015.HDRip.avi
    Формат : AVI
    Формат/Информация : Audio Video Interleave
    Размер файла : 1,46 Гбайт
    Продолжительность : 1 ч. 26 м.
    Общий поток : 2421 Кбит/сек
    Программа кодирования : VirtualDubMod 1.5.10.2 (build 2540/release)
    Библиотека кодирования : VirtualDubMod build 2540/release
    Видео
    Идентификатор : 0
    Формат : MPEG-4 Visual
    Профиль формата : Advanced Simple@L5
    Параметр BVOP формата : 1
    Параметр QPel формата : Нет
    Параметр GMC формата : Без точки перехода
    Параметр матрицы формата : Выборочная
    Идентификатор кодека : XVID
    Идентификатор кодека/Подсказка : XviD
    Продолжительность : 1 ч. 26 м.
    Битрейт : 2219 Кбит/сек
    Ширина : 720 пикселей
    Высота : 384 пикселя
    Соотношение сторон : 1,85:1
    Частота кадров : 24,000 кадра/сек
    Цветовое пространство : YUV
    Субдискретизация насыщенности : 4:2:0
    Битовая глубина : 8 бит
    Тип развёртки : Прогрессивная
    Метод сжатия : С потерями
    Бит/(Пиксели*Кадры) : 0.334
    Размер потока : 1,34 Гбайт (92%)
    Библиотека кодирования : XviD 65
    Аудио
    Идентификатор : 1
    Формат : AC-3
    Формат/Информация : Audio Coding 3
    Расширение режима : CM (complete main)
    Параметр Endianness формата : Big
    Идентификатор кодека : 2000
    Продолжительность : 1 ч. 26 м.
    Вид битрейта : Постоянный
    Битрейт : 192 Кбит/сек
    Каналы : 2 канала
    Расположение каналов : Front: L R
    Частота : 48,0 КГц
    Метод сжатия : С потерями
    Размер потока : 119 Мбайт (8%)
    Выравнивание : Разделение по промежуткам
    Продолжительность промежутка : 42 мс. (1,00 видеокадр)
    Время предзагрузки промежутка : 500 мс.

    Скриншоты

    Скачать .torrent

    Скачать торрент-файл бесплатно и на максимальной скорости!

    Как скачивать? · Что такое торрент? · Рейтинг и ограничения

    !ВНИМАНИЕ!
    Сайт не распространяет и не хранит электронные версии произведений, а занимается лишь лишь предоставлением доступа к создаваемому пользователями каталогу ссылок на торрент-файлы, которые содержат только списки хеш-сумм, убедительная просьба с жалобами обращаться напрямую к пользователю. Файлы для обмена на трекере предоставлены пользователями сайта, и администрация не несёт ответственности за их содержание. Просьба не заливать файлы, защищенные авторскими правами, а также файлы нелегального содержания!


    _________________
    [Профиль] [ЛС]
    Показать сообщения:    
    Ответить на тему

    Текущее время: Сегодня, в 22:18

    Часовой пояс: GMT + 2



    Вы не можете начинать темы
    Вы не можете отвечать на сообщения
    Вы не можете редактировать свои сообщения
    Вы не можете удалять свои сообщения
    Вы не можете голосовать в опросах
    Вы не можете прикреплять файлы к сообщениям
    Вы не можете скачивать файлы