BitTorrentTracker PerecTracker.org
BitTorrentTracker PerecTracker.org
    
Регистрация  ·  Вход
 
 · 
Забыли пароль?

  • Нет выхода / No Way Out (Роджер Доналдсон / Roger Donaldson) [1987, США, боевик, драма, криминал, HDTVRip 720p] Dub + DVO + 2x MVO + 3x AVO + Original (Eng) + Sub (Eng)

    Ответить на тему
     
    Автор Сообщение

    Flirldrerve

    Создавать темы 27-Июл-2015 15:46

           

    [Цитировать]

    Нет выхода / No Way OutГод выпуска: 1987
    Страна: США
    Жанр: боевик, драма, криминал
    Продолжительность: 01:54:18
    Переводы:
    - профессиональный (двуголосый закадровый) НТВ+ | текст читали И. Тарадайкин и О. Плетнёва
    - профессиональный (многоголосый закадровый) ТК Домашний
    - профессиональный (многоголосый закадровый) Пятый канал
    - авторский (одноголосый закадровый) А. Гаврилов
    - авторский (одноголосый закадровый) Ю. Живов
    - авторский (одноголосый закадровый) С. Дьяков
    - профессиональный (дублированный) Студия "Синхрон" творческого объединения "Хлопушка" киностудии имени А. Довженко
    Оригинальная аудиодорожка: английская
    Cубтитры: английские
    Режиссер: Роджер Доналдсон / Roger Donaldson
    В ролях: Кевин Костнер, Джин Хэкман, Уилл Паттон, Шон Янг, Джордж Дзундза, Иман, Джейсон Бернард, Маршалл Белл, Крис Д., Фред Далтон Томпсон, Леон Рассом, Юджин Роберт Глейзер
    Описание: Капитан-лейтенант ВМС Том Фаррелл влюбляется в Сьюзен, любовницу министра обороны Дэвида Брайса. Они встречаются и прекрасно проводят время, но однажды Брайс в порыве ревности случайно убивает Сьюзен. Начинаются подковерные политико-агентурные игры с целью подстраховать министра и поймать фальшивого убийцу - другого любовника Сьюзен и одновременно вымышленного советского агента. Фарреллу, получившему повышение в Пентагон, поручают расследование, в результате которого он сам может пострадать. Фотография, сделанная Сьюзен - главное доказательство существования убийцы - рано или поздно укажет на него. Это ситуация, где возможно нет выхода...
    Доп. информация:

    Тип релиза: HDTVRip 720p => Энкод от RiPSaW! | sample
    Исходник: No Way Out 1987 1080i HDTV DD5.1 MPEG2-CtrlHD
    Формат: MKV
    Видео: x264 | 1280x694 (1.85:1) | 23.976 fps | ~8869 Kbps | 0.406 bit/pixel
    Аудио #1: Russian AC3 6ch 48kHz 448Kbps | DVO
    Аудио #2: English AC3 6ch 48kHz 384Kbps | Оригинал
    Аудио #3: Russian AC3 2ch 48kHz 192Kbps | AVO А. Гаврилов
    Аудио #4: Russian AC3 2ch 48kHz 192Kbps | MVO ТК Домашний
    Аудио #5: Russian AC3 2ch 48kHz 192Kbps | MVO Пятый канал
    Аудио #6: Russian AC3 2ch 48kHz 192Kbps | AVO Ю. Живов
    Аудио #7: Russian AC3 2ch 48kHz 192Kbps | AVO С. Дьяков
    Аудио #8: Russian AC3 2ch 48kHz 192Kbps | Дубляж
    Формат субтитров: softsub (SRT)
    Навигация по главам: подписанные мультиязычные главы

    MediaInfo

    Уникальный идентификатор : 250996036986508454952056862386544803336 (0xBCD4140F1AE2744988192CA366B57E08)
    Полное имя : D:\...\No.Way.Out.1987.720p.HDTV.x264-RiPSaW.mkv
    Формат : Matroska
    Версия формата : Version 2
    Размер файла : 8,67 Гбайт
    Продолжительность : 1 ч. 54 м.
    Общий поток : 10,9 Мбит/сек
    Название фильма : No Way Out (1987)
    Дата кодирования : UTC 2015-07-09 16:59:12
    Программа кодирования : mkvmerge v7.0.0 ('Where We Going') 64bit built on Jun 9 2014 15:16:27
    Библиотека кодирования : libebml v1.3.0 + libmatroska v1.4.1
    Attachment : Yes
    Идентификатор : 1
    Формат : AVC
    Формат/Информация : Advanced Video Codec
    Профиль формата : High@L4.0
    Параметр CABAC формата : Да
    Параметр ReFrames формата : 10 кадров
    Идентификатор кодека : V_MPEG4/ISO/AVC
    Продолжительность : 1 ч. 54 м.
    Битрейт : 8694 Кбит/сек
    Ширина : 1280 пикселей
    Высота : 694 пикселя
    Соотношение сторон : 1,85:1
    Режим частоты кадров : Постоянный
    Частота кадров : 23,976 кадра/сек
    Цветовое пространство : YUV
    Субдискретизация насыщенности : 4:2:0
    Битовая глубина : 8 бит
    Тип развёртки : Прогрессивная
    Бит/(Пиксели*Кадры) : 0.406
    Размер потока : 6,91 Гбайт (80%)
    Заголовок : No.Way.Out.1987.720p.HDTV.x264-RiPSaW
    Библиотека кодирования : x264 core 146 r2538kMod 121396c
    Настройки программы : cabac=1 / ref=10 / deblock=1:-3:-2 / analyse=0x3:0x113 / me=umh / subme=11 / psy=1 / fade_compensate=0.00 / psy_rd=1.07:0.03 / mixed_ref=1 / me_range=32 / chroma_me=1 / trellis=2 / 8x8dct=1 / cqm=0 / deadzone=21,11 / fast_pskip=1 / chroma_qp_offset=-3 / threads=3 / lookahead_threads=1 / sliced_threads=0 / nr=0 / decimate=1 / interlaced=0 / bluray_compat=0 / constrained_intra=0 / fgo=0 / bframes=10 / b_pyramid=2 / b_adapt=2 / b_bias=0 / direct=1 / weightb=1 / open_gop=0 / weightp=2 / keyint=250 / keyint_min=23 / scenecut=40 / intra_refresh=0 / rc=crf / mbtree=0 / crf=17.8000 / qcomp=0.60 / qpmin=0 / qpmax=69 / qpstep=4 / ip_ratio=1.40 / pb_ratio=1.30 / aq=1:1.00
    Язык : English
    Default : Да
    Forced : Нет
    Коэффициенты матрицы : BT.709
    Аудио #1
    Идентификатор : 2
    Формат : AC-3
    Формат/Информация : Audio Coding 3
    Расширение режима : CM (complete main)
    Параметр Endianness формата : Big
    Идентификатор кодека : A_AC3
    Продолжительность : 1 ч. 54 м.
    Вид битрейта : Постоянный
    Битрейт : 448 Кбит/сек
    Каналы : 6 каналов
    Расположение каналов : Front: L C R, Side: L R, LFE
    Частота : 48,0 КГц
    Битовая глубина : 16 бит
    Метод сжатия : С потерями
    Размер потока : 366 Мбайт (4%)
    Заголовок : DVO НТВ+
    Язык : Russian
    Default : Да
    Forced : Нет
    Аудио #2
    Идентификатор : 3
    Формат : AC-3
    Формат/Информация : Audio Coding 3
    Расширение режима : CM (complete main)
    Параметр Endianness формата : Big
    Идентификатор кодека : A_AC3
    Продолжительность : 1 ч. 54 м.
    Вид битрейта : Постоянный
    Битрейт : 384 Кбит/сек
    Каналы : 6 каналов
    Расположение каналов : Front: L C R, Side: L R, LFE
    Частота : 48,0 КГц
    Битовая глубина : 16 бит
    Метод сжатия : С потерями
    Размер потока : 314 Мбайт (4%)
    Заголовок : Original
    Язык : English
    Default : Нет
    Forced : Нет
    Аудио #3
    Идентификатор : 4
    Формат : AC-3
    Формат/Информация : Audio Coding 3
    Расширение режима : CM (complete main)
    Параметр Endianness формата : Big
    Идентификатор кодека : A_AC3
    Продолжительность : 1 ч. 54 м.
    Вид битрейта : Постоянный
    Битрейт : 192 Кбит/сек
    Каналы : 2 канала
    Расположение каналов : Front: L R
    Частота : 48,0 КГц
    Битовая глубина : 16 бит
    Метод сжатия : С потерями
    Размер потока : 157 Мбайт (2%)
    Заголовок : AVO Андрей Гаврилов
    Язык : Russian
    Default : Нет
    Forced : Нет
    Аудио #4
    Идентификатор : 5
    Формат : AC-3
    Формат/Информация : Audio Coding 3
    Расширение режима : CM (complete main)
    Параметр Endianness формата : Big
    Идентификатор кодека : A_AC3
    Продолжительность : 1 ч. 54 м.
    Вид битрейта : Постоянный
    Битрейт : 192 Кбит/сек
    Каналы : 2 канала
    Расположение каналов : Front: L R
    Частота : 48,0 КГц
    Битовая глубина : 16 бит
    Метод сжатия : С потерями
    Размер потока : 157 Мбайт (2%)
    Заголовок : MVO ТК Домашний
    Язык : Russian
    Default : Нет
    Forced : Нет
    Аудио #5
    Идентификатор : 6
    Формат : AC-3
    Формат/Информация : Audio Coding 3
    Расширение режима : CM (complete main)
    Параметр Endianness формата : Big
    Идентификатор кодека : A_AC3
    Продолжительность : 1 ч. 54 м.
    Вид битрейта : Постоянный
    Битрейт : 192 Кбит/сек
    Каналы : 2 канала
    Расположение каналов : Front: L R
    Частота : 48,0 КГц
    Битовая глубина : 16 бит
    Метод сжатия : С потерями
    Размер потока : 157 Мбайт (2%)
    Заголовок : MVO Пятый канал
    Язык : Russian
    Default : Нет
    Forced : Нет
    Аудио #6
    Идентификатор : 7
    Формат : AC-3
    Формат/Информация : Audio Coding 3
    Расширение режима : CM (complete main)
    Параметр Endianness формата : Big
    Идентификатор кодека : A_AC3
    Продолжительность : 1 ч. 54 м.
    Вид битрейта : Постоянный
    Битрейт : 192 Кбит/сек
    Каналы : 2 канала
    Расположение каналов : Front: L R
    Частота : 48,0 КГц
    Битовая глубина : 16 бит
    Метод сжатия : С потерями
    Размер потока : 157 Мбайт (2%)
    Заголовок : AVO Юрий Живов
    Язык : Russian
    Default : Нет
    Forced : Нет
    Аудио #7
    Идентификатор : 8
    Формат : AC-3
    Формат/Информация : Audio Coding 3
    Расширение режима : CM (complete main)
    Параметр Endianness формата : Big
    Идентификатор кодека : A_AC3
    Продолжительность : 1 ч. 54 м.
    Вид битрейта : Постоянный
    Битрейт : 192 Кбит/сек
    Каналы : 2 канала
    Расположение каналов : Front: L R
    Частота : 48,0 КГц
    Битовая глубина : 16 бит
    Метод сжатия : С потерями
    Размер потока : 157 Мбайт (2%)
    Заголовок : AVO Сергей Дьяков
    Язык : Russian
    Default : Нет
    Forced : Нет
    Аудио #8
    Идентификатор : 9
    Формат : AC-3
    Формат/Информация : Audio Coding 3
    Расширение режима : CM (complete main)
    Параметр Endianness формата : Big
    Идентификатор кодека : A_AC3
    Продолжительность : 1 ч. 54 м.
    Вид битрейта : Постоянный
    Битрейт : 192 Кбит/сек
    Каналы : 2 канала
    Расположение каналов : Front: L R
    Частота : 48,0 КГц
    Битовая глубина : 16 бит
    Метод сжатия : С потерями
    Размер потока : 157 Мбайт (2%)
    Заголовок : Дубляж
    Язык : Russian
    Default : Нет
    Forced : Нет
    Текст
    Идентификатор : 10
    Формат : UTF-8
    Идентификатор кодека : S_TEXT/UTF8
    Идентификатор кодека/Информация : UTF-8 Plain Text
    Заголовок : Полные
    Язык : English
    Default : Нет
    Forced : Нет
    Меню
    00:00:00.000 : en:Opening Credits / Начальные титры
    00:03:30.460 : en:Interrogation / Допрос
    00:04:46.161 : en:Meet and Great / Большой приём
    00:09:55.220 : en:Sparks Fly / Искры летели
    00:14:50.723 : en:Daring Sea Rescue / Смелых море выручает
    00:17:49.777 : en:In Need of A Hero / Нужен герой
    00:20:30.146 : en:The Other Man / Другой мужчина
    00:23:10.472 : en:"Naval Hero Blushes" / Герою неловко
    00:26:07.608 : en:New Job / Новая работа
    00:31:46.613 : en:Susan's Guys / Парни Сьюзан
    00:37:27.996 : en:Romantic Getaway / Романтическое бегство от будней
    00:41:30.405 : en:Jealous Rage / Приступ ревности
    00:46:36.961 : en:Cover Up / Прикрыли
    00:50:51.257 : en:Stuck / Попал!
    00:58:09.778 : en:Top-Secret Business / Совершенно секретное дело
    01:04:18.396 : en:Seeking Yuri / Поиск Юрия
    01:07:51.317 : en:A Gift / Подарок
    01:09:31.042 : en:Moral Courage / Внутреннее мужество
    01:17:14.380 : en:Tom's Plan / План Тома
    01:21:53.575 : en:Time To Talk / Пора поговорить
    01:26:02.908 : en:All Coming Together / Все в сборе
    01:30:51.029 : en:Pentagon Search / Пентагон обыскивают
    01:33:16.925 : en:Sam's Help / Помощь Сэма
    01:36:31.411 : en:Kill to Protect / Убрать ради защиты
    01:39:44.687 : en:Getting Close / Развязка близка
    01:43:20.736 : en:Yuri Is Found / Юрий найден
    01:47:20.809 : en:A Time For Grief / Время печали
    01:50:07.976 : en:End Credits / Финальные титры

    x264 log

    x264 [info]: frame I:952 Avg QP:16.86 size:124174
    x264 [info]: frame P:33876 Avg QP:17.97 size: 71782
    x264 [info]: frame B:129614 Avg QP:20.09 size: 38988
    x264 [info]: consecutive B-frames: 0.9% 1.1% 2.2% 47.3% 8.4% 11.4% 2.3% 25.6% 0.3% 0.3% 0.2%
    x264 [info]: mb I I16..4: 2.5% 88.7% 8.8%
    x264 [info]: mb P I16..4: 0.3% 35.9% 1.5% P16..4: 21.3% 28.7% 10.6% 0.0% 0.0% skip: 1.7%
    x264 [info]: mb B I16..4: 0.0% 5.7% 0.1% B16..8: 39.4% 25.9% 5.6% direct:11.4% skip:11.8% L0:41.6% L1:46.1% BI:12.3%
    x264 [info]: 8x8 transform intra:95.6% inter:62.3%
    x264 [info]: coded y,uvDC,uvAC intra: 98.2% 75.8% 47.7% inter: 58.3% 30.1% 2.1%
    x264 [info]: i16 v,h,dc,p: 27% 15% 6% 51%
    x264 [info]: i8 v,h,dc,ddl,ddr,vr,hd,vl,hu: 10% 7% 12% 10% 13% 12% 12% 12% 12%
    x264 [info]: i4 v,h,dc,ddl,ddr,vr,hd,vl,hu: 17% 8% 5% 9% 13% 14% 12% 11% 11%
    x264 [info]: i8c dc,h,v,p: 35% 32% 20% 13%
    x264 [info]: Weighted P-Frames: Y:15.5% UV:10.5%
    x264 [info]: ref P L0: 41.6% 10.7% 17.2% 8.3% 5.9% 4.9% 3.8% 2.6% 2.2% 2.3% 0.3% 0.0%
    x264 [info]: ref B L0: 81.3% 8.4% 4.0% 1.9% 1.5% 1.1% 1.0% 0.5% 0.3%
    x264 [info]: ref B L1: 94.5% 5.5%
    x264 [info]: kb/s:8868.62
    x264 [info]: encoded 164442 frames, 8868.62 kb/s

    Скриншоты

    -Encode vs. Source vs. FGT








    Цитата:
    Цитата:

    26-Июл-15 20:31
    Исправлены ошибки, торрент перезалит.
    Скачать .torrent

    Скачать торрент-файл бесплатно и на максимальной скорости!

    Как скачивать? · Что такое торрент? · Рейтинг и ограничения

    !ВНИМАНИЕ!
    Сайт не распространяет и не хранит электронные версии произведений, а занимается лишь лишь предоставлением доступа к создаваемому пользователями каталогу ссылок на торрент-файлы, которые содержат только списки хеш-сумм, убедительная просьба с жалобами обращаться напрямую к пользователю. Файлы для обмена на трекере предоставлены пользователями сайта, и администрация не несёт ответственности за их содержание. Просьба не заливать файлы, защищенные авторскими правами, а также файлы нелегального содержания!


    _________________
    [Профиль] [ЛС]
    Показать сообщения:    
    Ответить на тему

    Текущее время: Сегодня, в 16:11

    Часовой пояс: GMT + 2



    Вы не можете начинать темы
    Вы не можете отвечать на сообщения
    Вы не можете редактировать свои сообщения
    Вы не можете удалять свои сообщения
    Вы не можете голосовать в опросах
    Вы не можете прикреплять файлы к сообщениям
    Вы не можете скачивать файлы