BitTorrentTracker PerecTracker.org
BitTorrentTracker PerecTracker.org
    
Регистрация  ·  Вход
 
 · 
Забыли пароль?

  • Авдотья Павловна (Александр Муратов) [1966, драма, киноповесть, SATRip]

    Ответить на тему
     
    Автор Сообщение

    rechyn

    Создавать темы 27-Июл-2015 11:34

           

    [Цитировать]

    Авдотья ПавловнаЖанр: драма, киноповесть
    Производство: Одесская киностудия художественных фильмов
    Год выпуска: 1966
    Продолжительность: 01:19:40
    Режиссёр: Александр Муратов
    В ролях: Зинаида Дехтярёва, Валентина Владимирова, Изольда Извицкая, Иван Дмитриев, Николай Гринько, Зиновий Гердт, Эдуард Бредун, Галина Бутовская, Галина Горячева, Владимир Каленков, Семён Лихогоденко, Александр Милюков, Леонид Жуковский, Антон Вилинский-Боголюбов, Александр Грызан, Марк Терещенко
    Описание: Показан конфликт, который заключался в принципиальном споре представителей двух направлений сельскохозяйственной науки - "мичуринского" направления, возглавляемого академиком Т.Д. Лысенко и классической генетики («вейсманизм-морганизм»). Пятнадцать лет назад селекционер Авдотья Павловна Белобородова (Зинаида Дехтярёва), потерпела в этом споре поражение. Дуся вернулась с фронта, получила назначение в научно-исследовательский институт, постепенно вспомнила все, чему училась в мирные дни, и пошла дальше — начала экспериментировать с новым сортом пшеницы. И на собственной практике убедилась в том, что генетика, которую в те послевоенные годы предавали анафеме лысенковцы, сторонники господствовавшего в науке направления, перспективна и плодотворна...
    Доп. информация: Собственный рип. За исходник спасибо Cheef mate!
    Сэмпл: http://multi-up.com/1060213
    Качество видео: SATRip
    Формат видео: AVI
    Видео: XviD, 688x528 (4:3), 25.000 fps, 2261 kbps avg
    Аудио: Russian MPEG Layer 3, 48 kHz, 2 ch, 192.00 kbps avg

    MediaInfo

    General
    Complete name : F:\Avdotia.Pavlovna_1966\Avdotia.Pavlovna_1966.SATRip.avi
    Format : AVI
    Format/Info : Audio Video Interleave
    File size : 1.37 GiB
    Duration : 1h 19mn
    Overall bit rate : 2 463 Kbps
    Writing application : VirtualDubMod 1.5.10.3 | www.virtualdub-fr.org || (build 2550/release)
    Writing library : VirtualDubMod build 2550/release
    Video
    ID : 0
    Format : MPEG-4 Visual
    Format profile : Advanced Simple@L5
    Format settings, BVOP : 1
    Format settings, QPel : No
    Format settings, GMC : No warppoints
    Format settings, Matrix : Default (MPEG)
    Codec ID : XVID
    Codec ID/Hint : XviD
    Duration : 1h 19mn
    Bit rate : 2 261 Kbps
    Width : 688 pixels
    Height : 528 pixels
    Display aspect ratio : 4:3
    Frame rate : 25.000 fps
    Color space : YUV
    Chroma subsampling : 4:2:0
    Bit depth : 8 bits
    Scan type : Progressive
    Compression mode : Lossy
    Bits/(Pixel*Frame) : 0.249
    Stream size : 1.26 GiB (92%)
    Writing library : XviD 73
    Audio
    ID : 1
    Format : MPEG Audio
    Format version : Version 1
    Format profile : Layer 3
    Codec ID : 55
    Codec ID/Hint : MP3
    Duration : 1h 19mn
    Bit rate mode : Constant
    Bit rate : 192 Kbps
    Channel(s) : 2 channels
    Sampling rate : 48.0 KHz
    Compression mode : Lossy
    Stream size : 109 MiB (8%)
    Alignment : Aligned on interleaves
    Interleave, duration : 40 ms (1.00 video frame)
    Interleave, preload duration : 504 ms
    Writing library : LAME3.99r
    Encoding settings : -m s -V 4 -q 0 -lowpass 18.6 -b 192

    Скриншот c названием фильма

    Скриншоты

    Скачать .torrent

    Скачать торрент-файл бесплатно и на максимальной скорости!

    Как скачивать? · Что такое торрент? · Рейтинг и ограничения

    !ВНИМАНИЕ!
    Сайт не распространяет и не хранит электронные версии произведений, а занимается лишь лишь предоставлением доступа к создаваемому пользователями каталогу ссылок на торрент-файлы, которые содержат только списки хеш-сумм, убедительная просьба с жалобами обращаться напрямую к пользователю. Файлы для обмена на трекере предоставлены пользователями сайта, и администрация не несёт ответственности за их содержание. Просьба не заливать файлы, защищенные авторскими правами, а также файлы нелегального содержания!


    _________________
    [Профиль] [ЛС]
    Показать сообщения:    
    Ответить на тему

    Текущее время: Сегодня, в 11:49

    Часовой пояс: GMT + 2



    Вы не можете начинать темы
    Вы не можете отвечать на сообщения
    Вы не можете редактировать свои сообщения
    Вы не можете удалять свои сообщения
    Вы не можете голосовать в опросах
    Вы не можете прикреплять файлы к сообщениям
    Вы не можете скачивать файлы