Register  ·  Log in
Forgot password?

  • Интеграл (Хаджи Ахмар) [1970, драма, WEB-DLRip]

    Reply to topic
    Author Message


    Post 27-Jul-2015 04:10



    Жанр: драма
    Год выпуска: 1970
    Продолжительность: 01:12:04
    Режиссёр: Хаджи Ахмар
    В ролях: Рустам Сагдуллаев, Хамза Умаров, Шухрат Иргашев, Джамал Низамходжаев, Тамилла Ахмедова, Рихси Ибрахимова, Шариф Каюмов, Тамара Трушина
    Описание: Практически все экранное время проходит в купе поезда, в котором едут Старый профессор, Студент, Паренек и Девушка.
    Качество видео: WEB-DLRip
    Формат видео: AVI
    Видео: XviD; 720x288; 2,50:1; 25.000 fps; 1308 Kbps
    Аудио: Rus; MP3; 44.1 KHz; 128 Kbps; 2 channels


    Format : AVI
    Format/Info : Audio Video Interleave
    File size : 746 MiB
    Duration : 1h 12mn
    Overall bit rate : 1 448 Kbps
    Writing application : MEncoder 1.0rc2-4.2.4
    Writing library : MPlayer
    Video #0
    ID : 0
    Format : MPEG-4 Visual
    Format profile : Simple@L1
    Format settings, BVOP : No
    Format settings, QPel : No
    Format settings, GMC : No warppoints
    Format settings, Matrix : Default (H.263)
    Codec ID : XVID
    Codec ID/Hint : XviD
    Duration : 1h 12mn
    Bit rate : 1 308 Kbps
    Width : 720 pixels
    Height : 288 pixels
    Display aspect ratio : 2.500
    Frame rate : 25.000 fps
    Color space : YUV
    Chroma subsampling : 4:2:0
    Bit depth : 8 bits
    Scan type : Progressive
    Compression mode : Lossy
    Bits/(Pixel*Frame) : 0.252
    Stream size : 674 MiB (90%)
    Writing library : Lavc51.44.0
    Audio #1
    ID : 1
    Format : MPEG Audio
    Format version : Version 1
    Format profile : Layer 3
    Codec ID : 55
    Codec ID/Hint : MP3
    Duration : 1h 12mn
    Bit rate mode : Constant
    Bit rate : 128 Kbps
    Channel(s) : 2 channels
    Sampling rate : 44.1 KHz
    Compression mode : Lossy
    Stream size : 66.0 MiB (9%)
    Alignment : Aligned on interleaves
    Interleave, duration : 26 ms (0.65 video frame)
    Interleave, preload duration : 522 ms


    Download .torrent

    Download free and at maximum speed!

    How to Download? · What is a torrent? · Ratings and Limitations

    The site does not extend and does not store electronic(digital) versions of products, and only gives access to a reference catalogue created by users on torrent-files which contain only lists of the hash-sums, the earnest entreaty, with complaints(abuse) to access directly to the user. Files for an exchange on tracker are given by users of a site, and the administration does not bear the responsibility for their maintenance. The request to not fill in the files protected by copyrights, and also files of the illegal maintenance!

    [Profile] [PM]
    Display posts from previous:    
    Reply to topic

    The time now is: Today 19:03

    All times are GMT + 3 Hours

    You cannot post new topics in this forum
    You cannot reply to topics in this forum
    You cannot edit your posts in this forum
    You cannot delete your posts in this forum
    You cannot vote in polls in this forum
    You cannot attach files in this forum
    You cannot download files in this forum