BitTorrentTracker PerecTracker.org
BitTorrentTracker PerecTracker.org
    
Регистрация  ·  Вход
 
 · 
Забыли пароль?

  • Интеграл (Хаджи Ахмар) [1970, драма, WEB-DLRip]

    Ответить на тему
     
    Автор Сообщение

    Light

    Создавать темы 27-Июл-2015 03:10

           

    [Цитировать]

    Интеграл
    Жанр: драма
    Год выпуска: 1970
    Продолжительность: 01:12:04
    Режиссёр: Хаджи Ахмар
    В ролях: Рустам Сагдуллаев, Хамза Умаров, Шухрат Иргашев, Джамал Низамходжаев, Тамилла Ахмедова, Рихси Ибрахимова, Шариф Каюмов, Тамара Трушина
    Описание: Практически все экранное время проходит в купе поезда, в котором едут Старый профессор, Студент, Паренек и Девушка.
    Семпл: http://sendfile.su/1140668
    Качество видео: WEB-DLRip
    Формат видео: AVI
    Видео: XviD; 720x288; 2,50:1; 25.000 fps; 1308 Kbps
    Аудио: Rus; MP3; 44.1 KHz; 128 Kbps; 2 channels

    MediaInfo

    General
    Format : AVI
    Format/Info : Audio Video Interleave
    File size : 746 MiB
    Duration : 1h 12mn
    Overall bit rate : 1 448 Kbps
    Writing application : MEncoder 1.0rc2-4.2.4
    Writing library : MPlayer
    Video #0
    ID : 0
    Format : MPEG-4 Visual
    Format profile : Simple@L1
    Format settings, BVOP : No
    Format settings, QPel : No
    Format settings, GMC : No warppoints
    Format settings, Matrix : Default (H.263)
    Codec ID : XVID
    Codec ID/Hint : XviD
    Duration : 1h 12mn
    Bit rate : 1 308 Kbps
    Width : 720 pixels
    Height : 288 pixels
    Display aspect ratio : 2.500
    Frame rate : 25.000 fps
    Color space : YUV
    Chroma subsampling : 4:2:0
    Bit depth : 8 bits
    Scan type : Progressive
    Compression mode : Lossy
    Bits/(Pixel*Frame) : 0.252
    Stream size : 674 MiB (90%)
    Writing library : Lavc51.44.0
    Audio #1
    ID : 1
    Format : MPEG Audio
    Format version : Version 1
    Format profile : Layer 3
    Codec ID : 55
    Codec ID/Hint : MP3
    Duration : 1h 12mn
    Bit rate mode : Constant
    Bit rate : 128 Kbps
    Channel(s) : 2 channels
    Sampling rate : 44.1 KHz
    Compression mode : Lossy
    Stream size : 66.0 MiB (9%)
    Alignment : Aligned on interleaves
    Interleave, duration : 26 ms (0.65 video frame)
    Interleave, preload duration : 522 ms

    Скриншоты






    Скачать .torrent

    Скачать торрент-файл бесплатно и на максимальной скорости!

    Как скачивать? · Что такое торрент? · Рейтинг и ограничения

    !ВНИМАНИЕ!
    Сайт не распространяет и не хранит электронные версии произведений, а занимается лишь лишь предоставлением доступа к создаваемому пользователями каталогу ссылок на торрент-файлы, которые содержат только списки хеш-сумм, убедительная просьба с жалобами обращаться напрямую к пользователю. Файлы для обмена на трекере предоставлены пользователями сайта, и администрация не несёт ответственности за их содержание. Просьба не заливать файлы, защищенные авторскими правами, а также файлы нелегального содержания!


    _________________
    [Профиль] [ЛС]
    Показать сообщения:    
    Ответить на тему

    Текущее время: Сегодня, в 10:46

    Часовой пояс: GMT + 2



    Вы не можете начинать темы
    Вы не можете отвечать на сообщения
    Вы не можете редактировать свои сообщения
    Вы не можете удалять свои сообщения
    Вы не можете голосовать в опросах
    Вы не можете прикреплять файлы к сообщениям
    Вы не можете скачивать файлы