Register  ·  Log in
Forgot password?

  • Соседи. На тропе войны / Neighbors (Николас Столлер / Nicholas Stoller.) [2014, США, комедия, HDRip] Dub

    Reply to topic
    Author Message


    Post 27-Jul-2015 04:10



    Соседи. На тропе войны / Neighbors-«Семейные против студентов»-Страна: США ||
    Жанр: комедия
    Год выпуска: 2014
    Продолжительность: 01:36:41-Перевод: Профессиональный (дублированный)
    Cубтитры: нет
    Режиссер: Николас Столлер / Nicholas Stoller.-В ролях: Зак Эфрон, Сет Роген, Роуз Бирн, Элиз Варгас, Зоя Варгас, Брайан Хаски, Айк Баринхолц, Карла Галло, Дэйв Франко, Хелстон Сейдж.-Описание: Как известно, мужчины бывают двух типов: холостые и глубоко женатые. Первые молоды, мускулисты и точно магнит притягивают блондинок и шумных друзей. Вторые обитают дома, выращивают детей и поглощают сериалы по телику. Обычно их пути не пересекаются. Но стоит им стать соседями, мужчины выходят на тропу войны.-КиноПоиск | IMDB | Семпл-Качество видео: HDRip [ BDRip/720p/]
    Формат видео: AVI
    Видео: 688x288 (2.39:1), 23.976 fps, XviD build 73 ~947 kbps avg, 0.20 bit/pixel
    Аудио: 48 kHz, MPEG Layer 3, 2 ch, ~128.00 kbps avg


    Complete name : E:\Соседи.На тропе войны.(Logan1995).avi
    Format : AVI
    Format/Info : Audio Video Interleave
    File size : 750 Мбайт
    Duration : 1 ч. 36 м.
    Overall bit rate : 1085 Кбит/сек
    Writing application : VirtualDubMod | || (build 2550/release)
    Writing library : VirtualDubMod build 2550/release
    ID : 0
    Format : MPEG-4 Visual
    Format profile : Advanced Simple@L5
    Format settings, BVOP : 1
    Format settings, QPel : Нет
    Format settings, GMC : Без точки перехода
    Format settings, Matrix : Выборочная
    Codec ID : XVID
    Codec ID/Hint : XviD
    Duration : 1 ч. 36 м.
    Bit rate : 947 Кбит/сек
    Width : 688 пикс.
    Height : 288 пикс.
    Display aspect ratio : 2,35:1
    Frame rate : 23,976 кадр/сек
    Color space : YUV
    Chroma subsampling : 4:2:0
    Bit depth : 8 бит
    Scan type : Прогрессивная
    Compression mode : С потерями
    Bits/(Pixel*Frame) : 0.199
    Stream size : 655 Мбайт (87%)
    Writing library : XviD 73
    ID : 1
    Format : MPEG Audio
    Format version : Version 1
    Format profile : Layer 3
    Codec ID : 55
    Codec ID/Hint : MP3
    Duration : 1 ч. 36 м.
    Bit rate mode : Постоянный
    Bit rate : 128 Кбит/сек
    Channel(s) : 2 канала(ов)
    Sampling rate : 48,0 КГц
    Compression mode : С потерями
    Stream size : 88,5 Мбайт (12%)
    Alignment : Соединение по промежуткам
    Interleave, duration : 42 мс. (1,00 видеокадр)
    Interleave, preload duration : 504 ms
    Writing library : LAME3.99r
    Encoding settings : -m s -V 4 -q 2 -lowpass 17 -b 128


    Download .torrent

    Download free and at maximum speed!

    How to Download? · What is a torrent? · Ratings and Limitations

    The site does not extend and does not store electronic(digital) versions of products, and only gives access to a reference catalogue created by users on torrent-files which contain only lists of the hash-sums, the earnest entreaty, with complaints(abuse) to access directly to the user. Files for an exchange on tracker are given by users of a site, and the administration does not bear the responsibility for their maintenance. The request to not fill in the files protected by copyrights, and also files of the illegal maintenance!

    [Profile] [PM]
    Display posts from previous:    
    Reply to topic

    The time now is: Today 22:25

    All times are GMT + 3 Hours

    You cannot post new topics in this forum
    You cannot reply to topics in this forum
    You cannot edit your posts in this forum
    You cannot delete your posts in this forum
    You cannot vote in polls in this forum
    You cannot attach files in this forum
    You cannot download files in this forum