Register  ·  Log in
Forgot password?

  • Сказка, рассказанная ночью (Ирина Тарковская) [1981, фэнтези, драма, приключения, DVDRip]

    Reply to topic
    Author Message


    Post 26-Jul-2015 23:58



    Сказка, рассказанная ночью
    Жанр: фэнтези, драма, приключения
    Год выпуска: 1981
    Продолжительность: 01:12:38
    Режиссёр: Ирина Тарковская
    В ролях: Игорь Костолевский, Александр Лазарев, Александр Галибин, Александр Калягин, Расми Джабраилов, Мара Звайгзне, Димитрий Кречетов, Майя Кирсе, Леонид Ярмольник, Ирина Мурзаева...
    Описание: В лесной избушке остались на ночлег Студент, Аптекарь, двое подмастерьев, Графиня с тетушкой. Внезапно появившиеся разбойники потребовали выдать им Графиню.
    Но подмастерья и Студент, перехитрив злодеев сами отправились в их логово. Главарь, тронутый благородством пленников, отпустил их восвояси, а прекрасная Графиня полюбила Студента.
    Качество видео: DVDRip Исходник
    Формат видео: AVI
    Видео: 672x368 (1.83:1), 25 fps, XviD build 73 ~1235 kbps avg, 0.20 bit/pixel
    Аудио: 48 kHz, AC3 Dolby Digital, 2/0 (L,R) ch, ~192 kbps


    Complete name : D:\Сказка, рассказанная ночью.avi
    Format : AVI
    Format/Info : Audio Video Interleave
    File size : 747 MiB
    Duration : 1h 12mn
    Overall bit rate : 1 437 Kbps
    Writing application : VirtualDubMod (build 2550/release)
    Writing library : VirtualDubMod build 2550/release
    ID : 0
    Format : MPEG-4 Visual
    Format profile : Advanced Simple@L5
    Format settings, BVOP : 1
    Format settings, QPel : No
    Format settings, GMC : No warppoints
    Format settings, Matrix : Custom
    Codec ID : XVID
    Codec ID/Hint : XviD
    Duration : 1h 12mn
    Bit rate : 1 236 Kbps
    Width : 672 pixels
    Height : 368 pixels
    Display aspect ratio : 1.85:1
    Frame rate : 25.000 fps
    Color space : YUV
    Chroma subsampling : 4:2:0
    Bit depth : 8 bits
    Scan type : Progressive
    Compression mode : Lossy
    Bits/(Pixel*Frame) : 0.200
    Stream size : 642 MiB (86%)
    Writing library : XviD 73
    ID : 1
    Format : AC-3
    Format/Info : Audio Coding 3
    Mode extension : CM (complete main)
    Format settings, Endianness : Big
    Codec ID : 2000
    Duration : 1h 12mn
    Bit rate mode : Constant
    Bit rate : 192 Kbps
    Channel(s) : 2 channels
    Channel positions : Front: L R
    Sampling rate : 48.0 KHz
    Compression mode : Lossy
    Stream size : 99.7 MiB (13%)
    Alignment : Split accross interleaves
    Interleave, duration : 40 ms (1.00 video frame)
    Interleave, preload duratio : 500 ms


    Download .torrent

    Download free and at maximum speed!

    How to Download? · What is a torrent? · Ratings and Limitations

    The site does not extend and does not store electronic(digital) versions of products, and only gives access to a reference catalogue created by users on torrent-files which contain only lists of the hash-sums, the earnest entreaty, with complaints(abuse) to access directly to the user. Files for an exchange on tracker are given by users of a site, and the administration does not bear the responsibility for their maintenance. The request to not fill in the files protected by copyrights, and also files of the illegal maintenance!

    [Profile] [PM]
    Display posts from previous:    
    Reply to topic

    The time now is: Today 10:08

    All times are GMT + 3 Hours

    You cannot post new topics in this forum
    You cannot reply to topics in this forum
    You cannot edit your posts in this forum
    You cannot delete your posts in this forum
    You cannot vote in polls in this forum
    You cannot attach files in this forum
    You cannot download files in this forum