BitTorrentTracker PerecTracker.org
BitTorrentTracker PerecTracker.org
    
Регистрация  ·  Вход
 
 · 
Забыли пароль?

  • Авдотья Павловна (Александр Муратов) [1966, киноповесть, DVB]

    Ответить на тему
     
    Автор Сообщение

    Light

    Создавать темы 26-Июл-2015 22:58

           

    [Цитировать]

    Авдотья Павловна
    Жанр: киноповесть
    Год выпуска: 1966
    Продолжительность: 01:19:39
    Режиссёр: Александр Муратов
    В ролях: Зинаида Дехтярёва, Валентина Владимирова, Изольда Извицкая, Иван Дмитриев, Николай Гринько, Зиновий Гердт, Галина Бутовская, Галина Горячева, Семен Лихогоденко, Эдуард Бредун, Александр Милюков, Леонид Жуковский, Марк Терещенко
    Описание: Первые послевоенные годы. Директор небольшой селекционной станции Авдотья Павловна не сразу убеждается в антинаучности официального лысенковского направления в биологии. А убедившись, уезжает в колхоз рядовым агрономом, где работает над выведением нового сорта пшеницы на основе гонимой лысенковцами хромосомной теории наследственности.
    Доп. информация: Запись потока *.ts со спутника EUTELSAT 36A/B, 36° в.д., ремукс в *.mpg программой VideoReDo.
    Качество видео: DVB
    Формат видео: MPEG-PS
    Видео: MPEG Video, 720(768)x576 (4:3), 25,000 кадров/сек, 4082 Кбит/сек
    Аудио: MPEG Audio, 48,0 КГц, 192 Кбит/сек, 2 канала

    MediaInfo

    Общее
    Полное имя : D:\MPG\АВДОТЬЯ ПАВЛОВНА (Ностальгия).mpg
    Формат : MPEG-PS
    Размер файла : 2,43 Гбайт
    Продолжительность : 1 ч. 19 м.
    Режим общего битрейта : Переменный
    Общий поток : 4361 Кбит/сек
    Видео
    Идентификатор : 224 (0xE0)
    Формат : MPEG Video
    Версия формата : Version 2
    Профиль формата : Main@Main
    Параметр BVOP формата : Да
    Параметр матрицы формата : Выборочная
    Параметр GOP формата : Variable
    Продолжительность : 1 ч. 19 м.
    Вид битрейта : Переменный
    Битрейт : 4082 Кбит/сек
    Максимальный битрейт : 15,0 Мбит/сек
    Ширина : 720 пикселей
    Высота : 576 пикселей
    Соотношение сторон : 4:3
    Частота кадров : 25,000 кадров/сек
    Стандарт вещания : PAL
    Цветовое пространство : YUV
    Субдискретизация насыщенности : 4:2:0
    Битовая глубина : 8 бит
    Тип развёртки : Чересстрочная
    Порядок развёртки : Верхнее поле первое
    Метод сжатия : С потерями
    Бит/(Пиксели*Кадры) : 0.394
    Временной код первого кадра : 00:00:00:00
    Оригинал временного кода : Group of pictures header
    Размер потока : 2,27 Гбайт (94%)
    Аудио
    Идентификатор : 192 (0xC0)
    Формат : MPEG Audio
    Версия формата : Version 1
    Профиль формата : Layer 2
    Продолжительность : 1 ч. 19 м.
    Вид битрейта : Постоянный
    Битрейт : 192 Кбит/сек
    Каналы : 2 канала
    Частота : 48,0 КГц
    Метод сжатия : С потерями
    Задержка видео : 13 мс.
    Размер потока : 109 Мбайт (4%)

    Скриншоты

    Скачать .torrent

    Скачать торрент-файл бесплатно и на максимальной скорости!

    Как скачивать? · Что такое торрент? · Рейтинг и ограничения

    !ВНИМАНИЕ!
    Сайт не распространяет и не хранит электронные версии произведений, а занимается лишь лишь предоставлением доступа к создаваемому пользователями каталогу ссылок на торрент-файлы, которые содержат только списки хеш-сумм, убедительная просьба с жалобами обращаться напрямую к пользователю. Файлы для обмена на трекере предоставлены пользователями сайта, и администрация не несёт ответственности за их содержание. Просьба не заливать файлы, защищенные авторскими правами, а также файлы нелегального содержания!


    _________________
    [Профиль] [ЛС]
    Показать сообщения:    
    Ответить на тему

    Текущее время: Сегодня, в 06:08

    Часовой пояс: GMT + 2



    Вы не можете начинать темы
    Вы не можете отвечать на сообщения
    Вы не можете редактировать свои сообщения
    Вы не можете удалять свои сообщения
    Вы не можете голосовать в опросах
    Вы не можете прикреплять файлы к сообщениям
    Вы не можете скачивать файлы