BitTorrentTracker PerecTracker.org
BitTorrentTracker PerecTracker.org
    
Регистрация  ·  Вход
 
 · 
Забыли пароль?

  • Море в огне (Леон Сааков) [1970, военный, DVB]

    Ответить на тему
     
    Автор Сообщение

    Light

    Создавать темы 26-Июл-2015 22:58

           

    [Цитировать]

    Море в огне (2 серии)
    Жанр: военный
    Год выпуска: 1970
    Продолжительность: 01:22:27 + 00:53:53
    Режиссёр: Леон Сааков
    В ролях: Григорий Антоненко, Николай Гринько, Ростислав Янковский, Всеволод Платов, Владимир Кашпур, Константин Тыртов, Дальвин Щербаков, Сергей Ляхницкий, Юрий Соломин, Ольга Остроумова, Николай Ерёменко (ст.), Всеволод Сафонов, Николай Гудзь, Владлен Паулус, Николай Алексеев (II), Радий Афанасьев, Гиви Берикашвили, Борис Борисов, Лариса Виккел, Юрий Горобец, Анатолий Грачёв, Геннадий Донягин, Гарри Дунц, Николай Иванов, Эдуард Изотов, Эрвин Кнаусмюллер, Василий Корзун, Ирина Короткова, Геннадий Крашенинников, Клара Лучко, Владимир Маренков, Ольга Маркина, Владимир Петченко, Гурам Пирцхалава, Владимир Пицек, Николай Рушковский
    Описание: Фильм воссоздает героическую эпопею обороны Севастополя в 1941—1942 годах.
    Доп. информация: Запись потока *.ts со спутника Ямал 402, 55° в.д., ремукс в *.mpg программой VideoReDo.
    Качество видео: DVB
    Формат видео: MPEG-PS
    Видео: MPEG Video, 720(768)x576 (4:3), 25,000 кадров/сек, 4425 Кбит/сек
    Аудио: MPEG Audio, 48,0 КГц, 192 Кбит/сек, 2 канала

    MediaInfo

    Общее
    Полное имя : D:\MPG\МОРЕ В ОГНЕ\МОРЕ В ОГНЕ 1 (Zvezda 55).mpg
    Формат : MPEG-PS
    Размер файла : 2,71 Гбайт
    Продолжительность : 1 ч. 22 м.
    Режим общего битрейта : Переменный
    Общий поток : 4710 Кбит/сек
    Видео
    Идентификатор : 224 (0xE0)
    Формат : MPEG Video
    Версия формата : Version 2
    Профиль формата : Main@Main
    Параметр BVOP формата : Да
    Параметр матрицы формата : Выборочная
    Параметр GOP формата : M=3, N=12
    Продолжительность : 1 ч. 22 м.
    Вид битрейта : Переменный
    Битрейт : 4425 Кбит/сек
    Максимальный битрейт : 15,0 Мбит/сек
    Ширина : 720 пикселей
    Высота : 576 пикселей
    Соотношение сторон : 4:3
    Частота кадров : 25,000 кадров/сек
    Стандарт вещания : PAL
    Цветовое пространство : YUV
    Субдискретизация насыщенности : 4:2:0
    Битовая глубина : 8 бит
    Тип развёртки : Чересстрочная
    Порядок развёртки : Верхнее поле первое
    Метод сжатия : С потерями
    Бит/(Пиксели*Кадры) : 0.427
    Временной код первого кадра : 00:00:00:00
    Оригинал временного кода : Group of pictures header
    Размер потока : 2,55 Гбайт (94%)
    Аудио
    Идентификатор : 192 (0xC0)
    Формат : MPEG Audio
    Версия формата : Version 1
    Профиль формата : Layer 2
    Продолжительность : 1 ч. 22 м.
    Вид битрейта : Постоянный
    Битрейт : 192 Кбит/сек
    Каналы : 2 канала
    Частота : 48,0 КГц
    Метод сжатия : С потерями
    Задержка видео : 22 мс.
    Размер потока : 113 Мбайт (4%)
    Общее
    Полное имя : D:\MPG\МОРЕ В ОГНЕ\МОРЕ В ОГНЕ 2 (Zvezda 55).mpg
    Формат : MPEG-PS
    Размер файла : 1,77 Гбайт
    Продолжительность : 53 м.
    Режим общего битрейта : Переменный
    Общий поток : 4710 Кбит/сек
    Видео
    Идентификатор : 224 (0xE0)
    Формат : MPEG Video
    Версия формата : Version 2
    Профиль формата : Main@Main
    Параметр BVOP формата : Да
    Параметр матрицы формата : Выборочная
    Параметр GOP формата : M=3, N=12
    Продолжительность : 53 м.
    Вид битрейта : Переменный
    Битрейт : 4425 Кбит/сек
    Максимальный битрейт : 15,0 Мбит/сек
    Ширина : 720 пикселей
    Высота : 576 пикселей
    Соотношение сторон : 4:3
    Частота кадров : 25,000 кадров/сек
    Стандарт вещания : PAL
    Цветовое пространство : YUV
    Субдискретизация насыщенности : 4:2:0
    Битовая глубина : 8 бит
    Тип развёртки : Чересстрочная
    Порядок развёртки : Верхнее поле первое
    Метод сжатия : С потерями
    Бит/(Пиксели*Кадры) : 0.427
    Временной код первого кадра : 00:00:00:00
    Оригинал временного кода : Group of pictures header
    Размер потока : 1,67 Гбайт (94%)
    Аудио
    Идентификатор : 192 (0xC0)
    Формат : MPEG Audio
    Версия формата : Version 1
    Профиль формата : Layer 2
    Продолжительность : 53 м.
    Вид битрейта : Постоянный
    Битрейт : 192 Кбит/сек
    Каналы : 2 канала
    Частота : 48,0 КГц
    Метод сжатия : С потерями
    Задержка видео : 22 мс.
    Размер потока : 74,0 Мбайт (4%)

    Скриншоты

    Скачать .torrent

    Скачать торрент-файл бесплатно и на максимальной скорости!

    Как скачивать? · Что такое торрент? · Рейтинг и ограничения

    !ВНИМАНИЕ!
    Сайт не распространяет и не хранит электронные версии произведений, а занимается лишь лишь предоставлением доступа к создаваемому пользователями каталогу ссылок на торрент-файлы, которые содержат только списки хеш-сумм, убедительная просьба с жалобами обращаться напрямую к пользователю. Файлы для обмена на трекере предоставлены пользователями сайта, и администрация не несёт ответственности за их содержание. Просьба не заливать файлы, защищенные авторскими правами, а также файлы нелегального содержания!


    _________________
    [Профиль] [ЛС]
    Показать сообщения:    
    Ответить на тему

    Текущее время: Сегодня, в 16:35

    Часовой пояс: GMT + 2



    Вы не можете начинать темы
    Вы не можете отвечать на сообщения
    Вы не можете редактировать свои сообщения
    Вы не можете удалять свои сообщения
    Вы не можете голосовать в опросах
    Вы не можете прикреплять файлы к сообщениям
    Вы не можете скачивать файлы