BitTorrentTracker PerecTracker.org
BitTorrentTracker PerecTracker.org
    
Регистрация  ·  Вход
 
 · 
Забыли пароль?

  • Соперницы (Алексей Дмитриев) [1929, драма, WEB-DLRip]

    Ответить на тему
     
    Автор Сообщение

    Light

    Создавать темы 26-Июл-2015 22:58

           

    [Цитировать]

    Соперницы
    Жанр: драма
    Год выпуска: 1929
    Продолжительность: 00:49:07
    Режиссёр: Алексей Дмитриев
    В ролях: Зана Занони, Ольга Ленская, И. Арканов, Глеб Кузнецов, Владимир Уральский, Н. Фурсов, К. Чугунов, Александр Новиков (IV), Александр Громов
    Описание: Две девушки – дочка лавочника Италмас и активистка кооперативного движения Тутыгаш борются за любовь охотника Ядыгара. Как водится, побеждает Тутыгаш, а вместе с ней и кооперативное движение. Перед глазами зрителей проходят народные обряды, моления, заговоры, яркие бытовые подробности.
    Доп. информация: Удмуртский художественно-этнографический фильм «Соперницы» был снят на студии «Межрабпом-Русь» в 1929 году, когда профессиональное искусство только зарождалось из обрядового, языческого в Удмуртии. Это первый фильм, снятый на удмуртской земле. Съемки проводились в глубинке, и все эпизодические роли «сыграны» жителями деревни, за исключением, конечно, главных героев, в антураже настоящей удмуртской деревни. Этот факт, несомненно, придает картине ощущение искренности и реальности. Фильм живой, просто потому, что крестьяне не умеют играть,они не актеры. Здесь присутствуют и реалии жизни того времени, которые были не измены на протяжении веков, и документальные съемки одного из удмуртских праздников. Поэтому «Соперницы» является не только историческим, но и общекультурным, глубоко этническим свидетельством языческой реальности.
    Фильм сохранился без 5-й части из 6-ти.
    Семпл: http://sendfile.su/1140208
    Качество видео: WEB-DLRip
    Формат видео: AVI
    Видео: DivX; 624x480; 4:3; 25.000 fps; 1500 Kbps
    Аудио: Rus; MP3; 44.1 KHz; 128 Kbps; 1 channel

    MediaInfo

    General
    Format : AVI
    Format/Info : Audio Video Interleave
    File size : 576 MiB
    Duration : 49mn 7s
    Overall bit rate : 1 640 Kbps
    Writing application : XviD4PSP 6.0 / 54.29.105
    Video #0
    ID : 0
    Format : MPEG-4 Visual
    Format profile : Advanced Simple@L1
    Format settings, BVOP : 3
    Format settings, QPel : No
    Format settings, GMC : No warppoints
    Format settings, Matrix : Default (H.263)
    Codec ID : DIVX
    Codec ID/Info : Project Mayo
    Codec ID/Hint : DivX 4
    Duration : 49mn 7s
    Bit rate : 1 500 Kbps
    Width : 624 pixels
    Height : 480 pixels
    Display aspect ratio : 4:3
    Frame rate : 25.000 fps
    Color space : YUV
    Chroma subsampling : 4:2:0
    Bit depth : 8 bits
    Scan type : Progressive
    Compression mode : Lossy
    Bits/(Pixel*Frame) : 0.200
    Stream size : 527 MiB (91%)
    Writing library : Lavc54.60.100
    Audio #1
    ID : 1
    Format : MPEG Audio
    Format version : Version 1
    Format profile : Layer 3
    Codec ID : 55
    Codec ID/Hint : MP3
    Duration : 49mn 7s
    Bit rate mode : Constant
    Bit rate : 128 Kbps
    Channel(s) : 1 channel
    Sampling rate : 44.1 KHz
    Compression mode : Lossy
    Stream size : 45.0 MiB (8%)
    Alignment : Aligned on interleaves
    Interleave, duration : 26 ms (0.65 video frame)
    Writing library : LAME3.99.4

    Скриншоты





    Скачать .torrent

    Скачать торрент-файл бесплатно и на максимальной скорости!

    Как скачивать? · Что такое торрент? · Рейтинг и ограничения

    !ВНИМАНИЕ!
    Сайт не распространяет и не хранит электронные версии произведений, а занимается лишь лишь предоставлением доступа к создаваемому пользователями каталогу ссылок на торрент-файлы, которые содержат только списки хеш-сумм, убедительная просьба с жалобами обращаться напрямую к пользователю. Файлы для обмена на трекере предоставлены пользователями сайта, и администрация не несёт ответственности за их содержание. Просьба не заливать файлы, защищенные авторскими правами, а также файлы нелегального содержания!


    _________________
    [Профиль] [ЛС]
    Показать сообщения:    
    Ответить на тему

    Текущее время: Сегодня, в 12:49

    Часовой пояс: GMT + 2



    Вы не можете начинать темы
    Вы не можете отвечать на сообщения
    Вы не можете редактировать свои сообщения
    Вы не можете удалять свои сообщения
    Вы не можете голосовать в опросах
    Вы не можете прикреплять файлы к сообщениям
    Вы не можете скачивать файлы