BitTorrentTracker PerecTracker.org
BitTorrentTracker PerecTracker.org
    
Регистрация  ·  Вход
 
 · 
Забыли пароль?

  • Что мы делаем в темноте / Реальные упыри / What We Do in the Shadows (Джемейн Клемент / Jemaine Clement, Таика Вайтити / Taika Waititi) [2014, Новая Зеландия, США, Комедия, HDRip] Dub (iTunes)

    Ответить на тему
     
    Автор Сообщение

    Light

    Создавать темы 26-Июл-2015 22:58

           

    [Цитировать]

    Что мы делаем в темноте / Реальные упыри / What We Do in the Shadows
    Страна: Новая Зеландия, США
    Жанр: Комедия
    Год выпуска: 2014
    Продолжительность: 01:25:31
    Перевод: Профессиональный (дублированный) iTunes
    Cубтитры: нет
    Оригинальная аудиодорожка: нет
    Режиссер: Джемейн Клемент / Jemaine Clement, Таика Вайтити / Taika Waititi
    В ролях: Джемейн Клемент, Таика Вайтити, Джеки Ван Бик, Риз Дэрби, Бен Френшам, Марио Джая, Бен Харкорт, Айзек Херон, Коэн Холлоуэй, Джейсон Хойте, Аарон Джексон, Натан Майстер, Майк Миноуг
    Описание: История жизни Виаго, Дикона и Владислава - трёх соседей и по совместительству бессмертных вампиров, которые всего лишь пытаются выжить в современном мире, где есть арендная плата, фейсконтроль в ночных клубах, губительный солнечный свет и другие неприятности.
    Доп. информация: 7.3
    7.6
    Сэмпл: http://sendfile.su/1140608
    Качество видео: HDRip
    Формат видео: AVI
    Видео: XviD, 1 898 kb/s, 720x384, 24.000 fps
    Аудио: AC3, 384 kb/s (6 ch), 48 kHz

    MediaInfo

    General
    Complete name : F:\Pe4Ln1e.Ypir1.2014.D.HDRip.avi
    Format : AVI
    Format/Info : Audio Video Interleave
    File size : 1.37 GiB
    Duration : 1h 25mn
    Overall bit rate : 2 291 Kbps
    Writing application : VirtualDubMod 1.5.10.3 | www.virtualdub-fr.org || (build 2550/release)
    Writing library : VirtualDubMod build 2550/release
    Video
    ID : 0
    Format : MPEG-4 Visual
    Format profile : Advanced Simple@L5
    Format settings, BVOP : 2
    Format settings, QPel : No
    Format settings, GMC : No warppoints
    Format settings, Matrix : Default (MPEG)
    Codec ID : XVID
    Codec ID/Hint : XviD
    Duration : 1h 25mn
    Bit rate : 1 898 Kbps
    Width : 720 pixels
    Height : 384 pixels
    Display aspect ratio : 1.85:1
    Frame rate : 24.000 fps
    Color space : YUV
    Chroma subsampling : 4:2:0
    Bit depth : 8 bits
    Scan type : Progressive
    Compression mode : Lossy
    Bits/(Pixel*Frame) : 0.286
    Stream size : 1.13 GiB (83%)
    Writing library : XviD 1.2.1 (UTC 2008-12-04)
    Audio
    ID : 1
    Format : AC-3
    Format/Info : Audio Coding 3
    Mode extension : CM (complete main)
    Format settings, Endianness : Big
    Codec ID : 2000
    Duration : 1h 25mn
    Bit rate mode : Constant
    Bit rate : 384 Kbps
    Channel(s) : 6 channels
    Channel positions : Front: L C R, Side: L R, LFE
    Sampling rate : 48.0 KHz
    Compression mode : Lossy
    Stream size : 235 MiB (17%)
    Alignment : Split accross interleaves
    Interleave, duration : 42 ms (1.00 video frame)
    Interleave, preload duration : 500 ms

    Скриншот c названием фильма

    Скриншоты










    Скачать .torrent

    Скачать торрент-файл бесплатно и на максимальной скорости!

    Как скачивать? · Что такое торрент? · Рейтинг и ограничения

    !ВНИМАНИЕ!
    Сайт не распространяет и не хранит электронные версии произведений, а занимается лишь лишь предоставлением доступа к создаваемому пользователями каталогу ссылок на торрент-файлы, которые содержат только списки хеш-сумм, убедительная просьба с жалобами обращаться напрямую к пользователю. Файлы для обмена на трекере предоставлены пользователями сайта, и администрация не несёт ответственности за их содержание. Просьба не заливать файлы, защищенные авторскими правами, а также файлы нелегального содержания!


    _________________
    [Профиль] [ЛС]
    Показать сообщения:    
    Ответить на тему

    Текущее время: Сегодня, в 00:07

    Часовой пояс: GMT + 2



    Вы не можете начинать темы
    Вы не можете отвечать на сообщения
    Вы не можете редактировать свои сообщения
    Вы не можете удалять свои сообщения
    Вы не можете голосовать в опросах
    Вы не можете прикреплять файлы к сообщениям
    Вы не можете скачивать файлы