BitTorrentTracker PerecTracker.org
BitTorrentTracker PerecTracker.org
    
Регистрация  ·  Вход
 
 · 
Забыли пароль?

  • Петров Д. - Полиглот. Испанский с нуля за 16 часов! (1-4/16) [2013 г., AVI, SATRip, RUS]

    Ответить на тему
     
    Автор Сообщение

    Columb

    Создавать темы 18-Май-2013 13:15

           

    [Цитировать]

    Полиглот. Испанский с нуля за 16 часов!Год выпуска: 2013 г.
    Автор: Дмитрий Петров
    Издатель: Россия, ГТРК
    Язык курса: Русский
    Продолжительность: ~44 мин на урок-Релиз:
    Качество видео: SATRip
    Формат видео: AVI
    Видео: 704x544 (1.29:1), 25 fps, XviD build 64 ~1452 kbps avg
    Аудио: 48 kHz, MPEG Layer 3, 2 ch, ~128.00 kbps avg-Описание: Интенсивный курс изучения испанского языка, разработанный Дмитрием Петровым. Курс состоит из 16 уроков. В группе 8 человек, все ученики не знают испанского. Уже на первом уроке они начинают общение на языке. С ошибками, с долгими паузами, с напряжением, но прогресс заметен сразу.
    Участники испанского курса: Анна Аглатова - оперная певица; Екатерина Мечетина - пианистка; Олег Долин - актер; Мириам Сехон - актриса; Григорий Служитель - актер; Александр Самойленко - актер; Полина Соловьева - журналист; Любовь Толкалина - актриса.

    MI

    Общее
    Полное имя : D:\Раздачи\Полиглот. Испанский с нуля за 16 часов 2013 SATRip\01 урок.avi
    Формат : AVI
    Формат/Информация : Audio Video Interleave
    Размер файла : 500 Мбайт
    Продолжительность : 43 м.
    Общий поток : 1591 Кбит/сек
    Программа кодирования : VirtualDubMod 1.5.10.2 (build 2540/release)
    Библиотека кодирования : VirtualDubMod build 2540/release
    Видео
    Идентификатор : 0
    Формат : MPEG-4 Visual
    Профиль формата : Advanced Simple@L5
    Параметр BVOP формата : 2
    Параметр QPel формата : Нет
    Параметр GMC формата : Без точки перехода
    Параметр матрицы формата : Default (MPEG)
    Идентификатор кодека : XVID
    Идентификатор кодека/Подсказка : XviD
    Продолжительность : 43 м.
    Битрейт : 1453 Кбит/сек
    Ширина : 704 пикселя
    Высота : 544 пикселя
    Соотношение сторон : 1,294
    Частота кадров : 25,000 кадров/сек
    Цветовое пространство : YUV
    Субдискретизация насыщенности : 4:2:0
    Битовая глубина : 8 бит
    Тип развёртки : Прогрессивная
    Метод сжатия : С потерями
    Бит/(Пиксели*Кадры) : 0.152
    Размер потока : 457 Мбайт (91%)
    Библиотека кодирования : XviD 64
    Аудио
    Идентификатор : 1
    Формат : MPEG Audio
    Версия формата : Version 1
    Профиль формата : Layer 3
    Режим : Joint stereo
    Расширение режима : MS Stereo
    Идентификатор кодека : 55
    Идентификатор кодека/Подсказка : MP3
    Продолжительность : 43 м.
    Вид битрейта : Постоянный
    Битрейт : 128 Кбит/сек
    Каналы : 2 канала
    Частота : 48,0 КГц
    Метод сжатия : С потерями
    Размер потока : 40,2 Мбайт (8%)
    Выравнивание : Соединение по промежуткам
    Продолжительность промежутка : 40 мс. (1,00 видеокадр)
    Время предзагрузки промежутка : 504 мс.
    Библиотека кодирования : LAME3.90.3

    Скриншоты




    Раздача ведётся путём добавления новых серий

    Внимание! Раздача ведётся путём добавления новых серий; при каждом добавлении создётся новый торрент. Чтобы начать докачку новой серии, пользователям необходимо сделать следующее:
    (1) остановить скачивание,
    (2) удалить старый торрент у себя из клиента (старые серии удалять не надо),
    (3) скачать новый торрент и запустить его у себя в клиенте вместо старого, при этом указать клиенту путь в старую папку куда и должно происходить скачивание новых серий.
    Ваш клиент при этом должен произвести хеширование (проверку) старой папки (если не производит сам - помогите ему сделать это), и будет докачивать только те серии которых у вас ещё нет. Старые серии при этом не удаляются, а продолжают раздаваться!
    Eсли вы уже удалили старые серии, то предотвратить повторную закачку старых серий можно, отжав галочку в соответсвующих местах при запуске нового торрента. По возможности, желательно не удалять старые серии как можно дольше чтобы релизёр не столько продолжал раздавать старые серии, а смог сконцентрироваться на новых.
    Скачать .torrent

    Скачать торрент-файл бесплатно и на максимальной скорости!

    Как скачивать? · Что такое торрент? · Рейтинг и ограничения

    !ВНИМАНИЕ!
    Сайт не распространяет и не хранит электронные версии произведений, а занимается лишь лишь предоставлением доступа к создаваемому пользователями каталогу ссылок на торрент-файлы, которые содержат только списки хеш-сумм, убедительная просьба с жалобами обращаться напрямую к пользователю. Файлы для обмена на трекере предоставлены пользователями сайта, и администрация не несёт ответственности за их содержание. Просьба не заливать файлы, защищенные авторскими правами, а также файлы нелегального содержания!

    [Профиль] [ЛС]

    -746

    Создавать темы 12-Фев-2014 00:19 (спустя 8 месяцев 24 дня)

           

    Топик был перенесен из форума Обучающие видеоматериалы в форум Английский язык

    -sasha2006 

    _________________
    Как бы ты высоко не летал, не забывай, с кем ты ползал..
     
    Показать сообщения:    
    Ответить на тему

    Текущее время: Сегодня, в 08:00

    Часовой пояс: GMT + 2



    Вы не можете начинать темы
    Вы не можете отвечать на сообщения
    Вы не можете редактировать свои сообщения
    Вы не можете удалять свои сообщения
    Вы не можете голосовать в опросах
    Вы не можете прикреплять файлы к сообщениям
    Вы не можете скачивать файлы