BitTorrentTracker PerecTracker.org
BitTorrentTracker PerecTracker.org
    
Регистрация  ·  Вход
 
 · 
Забыли пароль?

  • Осторожно, заложник! / Разниматель / The Ref (Тед Демме / Ted Demme) [1994, США, драма, комедия, криминал, WEB-DL 1080p] DVO (Видеосервис) + VO + Sub Eng + Original Eng

    Ответить на тему
     
    Автор Сообщение

    Flirldrerve

    Создавать темы 26-Июл-2015 18:46

           

    [Цитировать]

    Осторожно, заложник! / Разниматель / The Ref
    Страна: США
    Жанр: драма, комедия, криминал
    Год выпуска: 1994
    Продолжительность: 01:36:39
    Перевод 1: Профессиональный (двухголосый закадровый) Видеосервис
    Перевод 2: Одноголосый закадровый
    Cубтитры: английские
    Оригинальная аудиодорожка: английский
    Режиссер: Тед Демме / Ted Demme
    В ролях: Дэнис Лири, Джуди Дэвис, Кевин Спейси, Роберт Дж. Стайнмиллер мл., Глинис Джонс, Рэймонд Дж. Бэрри, Ричард Брайт, Кристин Барански, Адам ЛеФевр, Филлип Николл...
    Описание: Заложников, как и жену, нужно выбирать очень внимательно. Грабитель Гас, спасающийся от погони, напротив, вломился в первый попавшийся дом. Там жила мирная, на первый взгляд, американская семья. Но очень скоро Гас поймет: по сравнению с этим сумасшедшим семейством любая тюрьма — просто рай.
    Мало того, что горе-супруги целыми днями ссорятся друг с другом, к ним еще присоединяются мать отца, сестра и сын, которые все как на подбор один хуже другого.
    Волей неволей Гас сам оказывается в заложниках у семейных проблем своих заложников, и теперь его единственное спасение от полной потери рассудка — помирить эту вздорную пару.
    Сэмпл: http://multi-up.com/1060015
    Тип релиза: WEB-DL 1080p
    Контейнер: MKV
    Видео: 1916x1076 (16:9), 23.976 fps, AVC, ~4870 Kbps, 0.099 bits/pixel
    Аудио 1: Russian, 48.0 KHz, AC3, 2 ch, 192 Kbps - Видеосервис
    Аудио 2: Russian, 48.0 KHz, AC3, 2 ch, 192 Kbps
    Аудио 3: English, 48.0 KHz, AC3, 6 ch, 384 Kbps

    MediaInfo

    General
    Unique ID : 202697127457047687808299571439277890444 (0x987E0BF73933D4CA83ED3C164102DB8C)
    Complete name : D:\The Ref. WEB-DL 1080p.mkv
    Format : Matroska
    Format version : Version 4 / Version 2
    File size : 3.88 GiB
    Duration : 1h 36mn
    Overall bit rate : 5 753 Kbps
    Encoded date : UTC 2015-07-25 14:23:34
    Writing application : mkvmerge v8.1.0 ('Psychedelic Postcard') 64bit
    Writing library : libebml v1.3.1 + libmatroska v1.4.2
    DURATION : 01:36:14.470000000
    NUMBER_OF_FRAMES : 1521
    NUMBER_OF_BYTES : 66153
    _STATISTICS_WRITING_APP : mkvmerge v8.1.0 ('Psychedelic Postcard') 64bit
    _STATISTICS_WRITING_DATE_UT : 2015-07-25 14:23:34
    _STATISTICS_TAGS : BPS DURATION NUMBER_OF_FRAMES NUMBER_OF_BYTES
    Video
    ID : 1
    Format : AVC
    Format/Info : Advanced Video Codec
    Format profile : High@L4
    Format settings, CABAC : Yes
    Format settings, ReFrames : 4 frames
    Codec ID : V_MPEG4/ISO/AVC
    Duration : 1h 36mn
    Bit rate : 4 870 Kbps
    Width : 1 916 pixels
    Height : 1 076 pixels
    Display aspect ratio : 16:9
    Frame rate mode : Constant
    Frame rate : 23.976 fps
    Color space : YUV
    Chroma subsampling : 4:2:0
    Bit depth : 8 bits
    Scan type : Progressive
    Bits/(Pixel*Frame) : 0.099
    Stream size : 3.29 GiB (85%)
    Language : English
    Default : Yes
    Forced : No
    Color range : Limited
    Color primaries : BT.709
    Transfer characteristics : BT.709
    Matrix coefficients : BT.709
    Audio #1
    ID : 2
    Format : AC-3
    Format/Info : Audio Coding 3
    Mode extension : CM (complete main)
    Format settings, Endianness : Big
    Codec ID : A_AC3
    Duration : 1h 36mn
    Bit rate mode : Constant
    Bit rate : 192 Kbps
    Channel(s) : 2 channels
    Channel positions : Front: L R
    Sampling rate : 48.0 KHz
    Compression mode : Lossy
    Stream size : 133 MiB (3%)
    Title : Видеосервис
    Language : Russian
    Default : Yes
    Forced : No
    Audio #2
    ID : 3
    Format : AC-3
    Format/Info : Audio Coding 3
    Mode extension : CM (complete main)
    Format settings, Endianness : Big
    Codec ID : A_AC3
    Duration : 1h 36mn
    Bit rate mode : Constant
    Bit rate : 192 Kbps
    Channel(s) : 2 channels
    Channel positions : Front: L R
    Sampling rate : 48.0 KHz
    Compression mode : Lossy
    Stream size : 133 MiB (3%)
    Language : Russian
    Default : No
    Forced : No
    Audio #3
    ID : 4
    Format : AC-3
    Format/Info : Audio Coding 3
    Mode extension : CM (complete main)
    Format settings, Endianness : Big
    Codec ID : A_AC3
    Duration : 1h 36mn
    Bit rate mode : Constant
    Bit rate : 384 Kbps
    Channel(s) : 6 channels
    Channel positions : Front: L C R, Side: L R, LFE
    Sampling rate : 48.0 KHz
    Compression mode : Lossy
    Stream size : 265 MiB (7%)
    Language : English
    Default : No
    Forced : No
    Text
    ID : 5
    Format : UTF-8
    Codec ID : S_TEXT/UTF8
    Codec ID/Info : UTF-8 Plain Text
    Language : English
    Default : No
    Forced : No
    Menu
    00:00:00.000 : en:OPENING TITLES
    00:07:36.000 : en:MARRIAGE COUNSELING
    00:17:21.000 : en:POLICE INVESTIGATION
    00:24:00.000 : en:YELLING AT MURRAY
    00:35:04.000 : en:ALL TIED UP
    00:42:26.000 : en:EVIDENCE
    00:50:22.000 : en:HEART TO HEART
    00:57:58.000 : en:FAMILY ARRIVES
    01:02:27.000 : en:CHRISTMAS FEAST
    01:10:43.000 : en:OPENING PRESENTS
    01:21:02.000 : en:GRANDMA NEEDS A GAG
    01:32:17.000 : en:END CREDITS

    Скриншоты

    Скачать .torrent

    Скачать торрент-файл бесплатно и на максимальной скорости!

    Как скачивать? · Что такое торрент? · Рейтинг и ограничения

    !ВНИМАНИЕ!
    Сайт не распространяет и не хранит электронные версии произведений, а занимается лишь лишь предоставлением доступа к создаваемому пользователями каталогу ссылок на торрент-файлы, которые содержат только списки хеш-сумм, убедительная просьба с жалобами обращаться напрямую к пользователю. Файлы для обмена на трекере предоставлены пользователями сайта, и администрация не несёт ответственности за их содержание. Просьба не заливать файлы, защищенные авторскими правами, а также файлы нелегального содержания!


    _________________
    [Профиль] [ЛС]
    Показать сообщения:    
    Ответить на тему

    Текущее время: Сегодня, в 23:17

    Часовой пояс: GMT + 2



    Вы не можете начинать темы
    Вы не можете отвечать на сообщения
    Вы не можете редактировать свои сообщения
    Вы не можете удалять свои сообщения
    Вы не можете голосовать в опросах
    Вы не можете прикреплять файлы к сообщениям
    Вы не можете скачивать файлы