BitTorrentTracker PerecTracker.org
BitTorrentTracker PerecTracker.org
    
Регистрация  ·  Вход
 
 · 
Забыли пароль?

  • Ох, уж эти детки 2 / Карапузы в Париже / Rugrats in Paris: The Movie - Rugrats II (Стиг Бергквист, Пол Димайер / Stig Bergqvist, Paul Demeyer) [2000, мультфильм, комедия, приключения, семейный, WEB-DLRip] DUB + MVO + AVO

    Ответить на тему
     
    Автор Сообщение

    rechyn

    Создавать темы 26-Июл-2015 18:46

           

    [Цитировать]

    Карапузы в Париже
    Rugrats in Paris: The Movie - Rugrats II
    Страна: США, Германия
    Жанр: мультфильм, комедия, приключения, семейный
    Продолжительность: 01:18:28
    Год выпуска: 2000-Перевод: Профессиональный (Дублированный)
    Перевод: Профессиональный (Многоголосый закадровый)
    Перевод: Авторский (Одноголосый закадровый) - С. Визгунов
    Русские субтитры: нет
    Режиссёр: Стиг Бергквист, Пол Димайер / Stig Bergqvist, Paul Demeyer-Роли озвучивали: Элизабет Дэйли, Тара Стронг, Шерил Чейз, Кристин Кавана, Кри Саммер, Кэт Сауси, Майкл Белл, Тресс МакНилл, Кэйси Касэм, Джо Аляски
    Роли дублировали: Татьяна Весёлкина, Ольга Голованова, Никита Прозоровский-Описание: Приключения продолжаются! Наши любимые карапузы решили взять приступом город Париж! Берегись Франция: самые отчаянные малыши на свете решили осчастливить тебя своим внезапным визитом. Земля древних галлов доживает свои последние спокойные часы перед тем, как на нее ступит нога карапуза…-Релиз:
    | | -• Работа с WEB-DL и звуком -Azureus--Качество: WEB-DLRip
    Формат: AVI
    Видео: 688x384 (1.79:1), 23,976 fps, XviD 65 ~1 193 kbps avg, 0.19 bit/pixel
    Аудио: 48.0 kHz, MPEG Layer 3, 2 ch, ~128 kbps |DUB|
    Аудио: 48.0 kHz, MPEG Layer 3, 2 ch, ~128 kbps |MVO|отдельно
    Аудио: 48.0 kHz, MPEG Layer 3, 2 ch, ~128 kbps |AVO| отдельно
    Субтитры: отсутствуют

    MI


    Общее
    Полное имя : E:\incarcare\rip gata\Rugrats.In.Paris.The Movie.2000.WEB-DLRip.746\Rugrats In Paris.The Movie.2000.WEB-DLRip.avi
    Формат : AVI
    Формат/Информация : Audio Video Interleave
    Размер файла : 747 Мбайт
    Продолжительность : 1 ч. 18 м.
    Общий поток : 1330 Кбит/сек
    Программа кодирования : VirtualDubMod 1.5.10.2 (build 2540/release)
    Библиотека кодирования : VirtualDubMod build 2540/release
    Видео
    Идентификатор : 0
    Формат : MPEG-4 Visual
    Профиль формата : Advanced Simple@L5
    Параметр BVOP формата : 1
    Параметр QPel формата : Нет
    Параметр GMC формата : Без точки перехода
    Параметр матрицы формата : Выборочная
    Идентификатор кодека : XVID
    Идентификатор кодека/Подсказка : XviD
    Продолжительность : 1 ч. 18 м.
    Битрейт : 1193 Кбит/сек
    Ширина : 688 пикселей
    Высота : 384 пикселя
    Соотношение сторон : 16:9
    Частота кадров : 23,976 кадра/сек
    Цветовое пространство : YUV
    Субдискретизация насыщенности : 4:2:0
    Битовая глубина : 8 бит
    Тип развёртки : Прогрессивная
    Метод сжатия : С потерями
    Бит/(Пиксели*Кадры) : 0.188
    Размер потока : 670 Мбайт (90%)
    Библиотека кодирования : XviD 65
    Аудио
    Идентификатор : 1
    Формат : MPEG Audio
    Версия формата : Version 1
    Профиль формата : Layer 3
    Идентификатор кодека : 55
    Идентификатор кодека/Подсказка : MP3
    Продолжительность : 1 ч. 18 м.
    Вид битрейта : Постоянный
    Битрейт : 128 Кбит/сек
    Каналы : 2 канала
    Частота : 48,0 КГц
    Метод сжатия : С потерями
    Размер потока : 71,8 Мбайт (10%)
    Выравнивание : Соединение по промежуткам
    Продолжительность промежутка : 42 мс. (1,00 видеокадр)
    Время предзагрузки промежутка : 504 мс.

    Скриншоты

    Скачать .torrent

    Скачать торрент-файл бесплатно и на максимальной скорости!

    Как скачивать? · Что такое торрент? · Рейтинг и ограничения

    !ВНИМАНИЕ!
    Сайт не распространяет и не хранит электронные версии произведений, а занимается лишь лишь предоставлением доступа к создаваемому пользователями каталогу ссылок на торрент-файлы, которые содержат только списки хеш-сумм, убедительная просьба с жалобами обращаться напрямую к пользователю. Файлы для обмена на трекере предоставлены пользователями сайта, и администрация не несёт ответственности за их содержание. Просьба не заливать файлы, защищенные авторскими правами, а также файлы нелегального содержания!


    _________________
    [Профиль] [ЛС]
    Показать сообщения:    
    Ответить на тему

    Текущее время: Сегодня, в 04:11

    Часовой пояс: GMT + 2



    Вы не можете начинать темы
    Вы не можете отвечать на сообщения
    Вы не можете редактировать свои сообщения
    Вы не можете удалять свои сообщения
    Вы не можете голосовать в опросах
    Вы не можете прикреплять файлы к сообщениям
    Вы не можете скачивать файлы