BitTorrentTracker PerecTracker.org
BitTorrentTracker PerecTracker.org
    
Регистрация  ·  Вход
 
 · 
Забыли пароль?

  • Кровавая месть / In the Blood (Джон Стокуэлл / John Stockwell) [2014, Великобритания, Пуэрто Рико, триллер, боевик, криминал, HDRip] Dub + Sub (rus Forced)

    Ответить на тему
     
    Автор Сообщение

    Light

    Создавать темы 26-Июл-2015 18:46

           

    [Цитировать]

    -Кровавая месть / In the Blood--Год выпуска: 2014Страна: Великобритания, Пуэрто РикоЖанр: триллер, боевик, криминал-Продолжительность: 01:47:40Перевод: Профессиональный (дублированный) [лицензия]Субтитры: русские - форсированные--Режиссер:Джон Стокуэлл / John Stockwell-В ролях:Джина Карано, Кэм Жиганде, Исмаэль Круз, Луис Гусман, Дэнни Трехо, Трит Уильямс, Амори Ноласко, Стивен Лэнг, Ивет Йэтс, Элоиза Мамфорд, Бен Брэй, Пабло Канкуэро, Рауль Алькосер, Ханна Коули, Палома Лува, Оскар Х. Герерро, Лоуренс П. Сирлс, Камерон Денни, Блас Диас, Куинн Ерли, Эдди Дж. Фернандез, Клиффорд Майатт-Описание:
    Сильная и красивая Ава мечтала провести с мужем счастливый отпуск на райских Карибских островах на берегу океана… В одно мгновение все превратилось в ад. После загадочного исчезновения мужа Ава начинает расследование. Во что бы то ни стало, она найдет людей, которые похитили и убили ее возлюбленного. Гнев женщины в горе не знает предела…
    --Дополнительная информация:-
    -Сэмпл Рип совместим с бытовыми DVD-проигрывателями.--Качество видео: HDRip (Исходник: BDRip 720p)
    Формат видео: AVI
    Видео: 656x352 (1.86:1), 23.976 fps, XviD build 73 ~829 kbps avg, 0.15 bit/pixel
    Аудио: 48 kHz, MPEG Layer 3, 2 ch, 128.00 kbps (Dub)-Скриншоты


    Скриншот с названием

    MediaInfo

    General
    Complete name : \Krovavaya_mest_(2014).HDRip.mp3.Dub_[All.Films][RG]\Krovavaya_mest_(2014).HDRip.mp3.Dub_[All.Films][RG].avi
    Format : AVI
    Format/Info : Audio Video Interleave
    File size : 745 MiB
    Duration : 1h 47mn
    Overall bit rate : 967 Kbps
    Movie name : Кровавая месть / In the Blood (2014) HDRip [All.Films][RG]
    Director : <VIRUS> [perectracker.org]
    Writing application : VirtualDubMod 1.5.10.3 | www.virtualdub-fr.org || (build 2550/release)
    Writing library : VirtualDubMod build 2550/release
    Copyright : [perectracker.org]
    Video
    ID : 0
    Format : MPEG-4 Visual
    Format profile : Advanced Simple@L5
    Format settings, BVOP : 2
    Format settings, QPel : No
    Format settings, GMC : No warppoints
    Format settings, Matrix : Custom
    Codec ID : XVID
    Codec ID/Hint : XviD
    Duration : 1h 47mn
    Bit rate : 830 Kbps
    Width : 656 pixels
    Height : 352 pixels
    Display aspect ratio : 1.85:1
    Frame rate : 23.976 fps
    Color space : YUV
    Chroma subsampling : 4:2:0
    Bit depth : 8 bits
    Scan type : Progressive
    Compression mode : Lossy
    Bits/(Pixel*Frame) : 0.150
    Stream size : 639 MiB (86%)
    Writing library : XviD 73
    Audio
    ID : 1
    Format : MPEG Audio
    Format version : Version 1
    Format profile : Layer 3
    Codec ID : 55
    Codec ID/Hint : MP3
    Duration : 1h 47mn
    Bit rate mode : Constant
    Bit rate : 128 Kbps
    Channel(s) : 2 channels
    Sampling rate : 48.0 KHz
    Compression mode : Lossy
    Stream size : 98.6 MiB (13%)
    Alignment : Aligned on interleaves
    Interleave, duration : 42 ms (1.00 video frame)
    Interleave, preload duratio : 504 ms
    Writing library : LAME3.99r
    Encoding settings : -m s -V 4 -q 0 -lowpass 17 -b 128
    Скачать .torrent

    Скачать торрент-файл бесплатно и на максимальной скорости!

    Как скачивать? · Что такое торрент? · Рейтинг и ограничения

    !ВНИМАНИЕ!
    Сайт не распространяет и не хранит электронные версии произведений, а занимается лишь лишь предоставлением доступа к создаваемому пользователями каталогу ссылок на торрент-файлы, которые содержат только списки хеш-сумм, убедительная просьба с жалобами обращаться напрямую к пользователю. Файлы для обмена на трекере предоставлены пользователями сайта, и администрация не несёт ответственности за их содержание. Просьба не заливать файлы, защищенные авторскими правами, а также файлы нелегального содержания!


    _________________
    [Профиль] [ЛС]
    Показать сообщения:    
    Ответить на тему

    Текущее время: Сегодня, в 10:40

    Часовой пояс: GMT + 2



    Вы не можете начинать темы
    Вы не можете отвечать на сообщения
    Вы не можете редактировать свои сообщения
    Вы не можете удалять свои сообщения
    Вы не можете голосовать в опросах
    Вы не можете прикреплять файлы к сообщениям
    Вы не можете скачивать файлы