BitTorrentTracker PerecTracker.org
BitTorrentTracker PerecTracker.org
    
Регистрация  ·  Вход
 
 · 
Забыли пароль?

  • Другая Бовари / Gemma Bovery (Анн Фонтен / Anne Fontaine) [2014, Франция, Великобритания, драма, мелодрама, комедия, BDRip-AVC] Dub + Sub (Rus, Eng, Fre)

    Ответить на тему
     
    Автор Сообщение

    Light

    Создавать темы 26-Июл-2015 18:46

           

    [Цитировать]

    Другая Бовари
    Gemma Bovery


    Страна: Франция, Великобритания
    Жанр: драма, мелодрама, комедия
    Год выпуска: 2014
    Продолжительность: 01:39:00
    Перевод: Профессиональный (полное дублирование) [Лицензия]
    Субтитры: русские, английские, французские
    Оригинальная аудиодорожка: нет
    Режиссер: Анн Фонтен / Anne Fontaine
    В ролях: Фабрис Лукини, Джемма Артертон, Джейсон Флеминг, Изабель Канделье, Нильс Шнайдер, Мел Райдо, Эльза Зильберштейн, Пип Торренс, Кейси Моттет Кляйн, Эдит Скоб, Филипп Юшан, Паскаль Арбийо
    Описание:
    Лето. Франция. Запах круасcанов по утрам. Воздух пропитан чувственностью... Во французскую глубинку переезжает английская супружеская пара по фамилии Бовери, чья жизнь очень напоминает фабулу всемирно известного романа Гюстава Флобера. Однако очаровательная Джемма не читала классику...

    Релиз:
    Автор рипа: Stalker oK
    Сэмпл
    Качество видео: BDRip-AVC [Blu-ray Remux 1080p-RARBG]
    Формат видео: MKV
    Видео кодек: AVC
    Аудио кодек: AC3
    Видео: 1652 Кбит/сек, 1008x420 (2.40:1), 24 кадр/сек, AVC
    Аудио: русский, 448 Кбит/сек, 48 КГц, 16 бит, 5.1, AC3 (R5)
    Навигация по главам: есть

    MediaInfo

    General
    Unique ID : 237768807304822318522759394729476359338 (0xB2E09B490555BA05948FF82FB96604AA)
    Complete name : M:\Рипы\Другая Бовари\Gemma.Bovery.2014.BDRip-AVC.Dub.1.45Gb...stalkerok.new-team.mkv
    Format : Matroska
    File size : 1.45 GiB
    Duration : 1h 39mn
    Overall bit rate : 2 102 Kbps
    Movie name : Gemma Bovery (2014) (New-Team) (Rip by Stalker oK)
    Encoded date : UTC 2015-07-25 15:58:24
    Writing application : mkvmerge v7.9.0 ('Birds') 64bit
    Writing library : libebml v1.3.1 + libmatroska v1.4.2
    Video
    ID : 1
    Format : AVC
    Format/Info : Advanced Video Codec
    Format profile : High@L4.1
    Format settings, CABAC : Yes
    Format settings, ReFrames : 12 frames
    Codec ID : V_MPEG4/ISO/AVC
    Duration : 1h 39mn
    Bit rate : 1 652 Kbps
    Width : 1 008 pixels
    Height : 420 pixels
    Display aspect ratio : 2.40:1
    Frame rate : 24.000 fps
    Color space : YUV
    Chroma subsampling : 4:2:0
    Bit depth : 8 bits
    Scan type : Progressive
    Bits/(Pixel*Frame) : 0.163
    Stream size : 1.11 GiB (77%)
    Title : Gemma Bovery (2014) (New-Team) (Rip by Stalker oK)
    Writing library : x264 core 146 r2538kMod 121396c
    Encoding settings : cabac=1 / ref=12 / deblock=1:-3:-2 / analyse=0x3:0x133 / me=umh / subme=11 / psy=1 / fade_compensate=0.00 / psy_rd=1.00:0.08 / mixed_ref=1 / me_range=32 / chroma_me=1 / trellis=2 / 8x8dct=1 / cqm=0 / deadzone=21,11 / fast_pskip=0 / chroma_qp_offset=-3 / threads=12 / lookahead_threads=3 / sliced_threads=0 / nr=0 / decimate=0 / interlaced=0 / bluray_compat=0 / constrained_intra=0 / fgo=0 / bframes=14 / b_pyramid=2 / b_adapt=2 / b_bias=0 / direct=3 / weightb=1 / open_gop=0 / weightp=2 / keyint=240 / keyint_min=24 / scenecut=40 / intra_refresh=0 / rc_lookahead=60 / rc=2pass / mbtree=0 / bitrate=1652 / ratetol=1.0 / qcomp=0.70 / qpmin=0 / qpmax=69 / qpstep=4 / cplxblur=20.0 / qblur=0.5 / vbv_maxrate=50000 / vbv_bufsize=62500 / nal_hrd=none / filler=0 / ip_ratio=1.40 / pb_ratio=1.30 / aq=3:0.85
    Audio
    ID : 2
    Format : AC-3
    Format/Info : Audio Coding 3
    Mode extension : CM (complete main)
    Codec ID : A_AC3
    Duration : 1h 39mn
    Bit rate mode : Constant
    Bit rate : 448 Kbps
    Channel(s) : 6 channels
    Channel positions : Front: L C R, Side: L R, LFE
    Sampling rate : 48.0 KHz
    Bit depth : 16 bits
    Compression mode : Lossy
    Stream size : 317 MiB (21%)
    Language : Russian
    Text #1
    ID : 3
    Format : UTF-8
    Codec ID : S_TEXT/UTF8
    Codec ID/Info : UTF-8 Plain Text
    Language : Russian
    Text #2
    ID : 4
    Format : UTF-8
    Codec ID : S_TEXT/UTF8
    Codec ID/Info : UTF-8 Plain Text
    Language : English
    Text #3
    ID : 5
    Format : UTF-8
    Codec ID : S_TEXT/UTF8
    Codec ID/Info : UTF-8 Plain Text
    Language : French
    Menu
    00:00:00.000 : en:00:00:00.000
    00:09:52.000 : en:00:09:52.000
    00:17:03.167 : en:00:17:03.167
    00:25:04.292 : en:00:25:04.292
    00:33:01.792 : en:00:33:01.792
    00:40:51.500 : en:00:40:51.500
    00:50:29.875 : en:00:50:29.875
    01:00:16.750 : en:01:00:16.750
    01:10:47.833 : en:01:10:47.833
    01:18:23.250 : en:01:18:23.250
    01:25:23.375 : en:01:25:23.375
    01:31:39.875 : en:01:31:39.875

    Скриншоты

    Скачать .torrent

    Скачать торрент-файл бесплатно и на максимальной скорости!

    Как скачивать? · Что такое торрент? · Рейтинг и ограничения

    !ВНИМАНИЕ!
    Сайт не распространяет и не хранит электронные версии произведений, а занимается лишь лишь предоставлением доступа к создаваемому пользователями каталогу ссылок на торрент-файлы, которые содержат только списки хеш-сумм, убедительная просьба с жалобами обращаться напрямую к пользователю. Файлы для обмена на трекере предоставлены пользователями сайта, и администрация не несёт ответственности за их содержание. Просьба не заливать файлы, защищенные авторскими правами, а также файлы нелегального содержания!


    _________________
    [Профиль] [ЛС]
    Показать сообщения:    
    Ответить на тему

    Текущее время: Сегодня, в 06:45

    Часовой пояс: GMT + 2



    Вы не можете начинать темы
    Вы не можете отвечать на сообщения
    Вы не можете редактировать свои сообщения
    Вы не можете удалять свои сообщения
    Вы не можете голосовать в опросах
    Вы не можете прикреплять файлы к сообщениям
    Вы не можете скачивать файлы