BitTorrentTracker PerecTracker.org
BitTorrentTracker PerecTracker.org
    
Регистрация  ·  Вход
 
 · 
Забыли пароль?

  • Местный колорит / Couleur locale (Колин Серро / Coline Serreau, Самюэль Тасинаж / Samuel Tasinaje) [2014, Франция, трагикомедия, DVB] Original (Fre) + Sub (Rus, Eng, Fre, Deu)

    Ответить на тему
     
    Автор Сообщение

    Light

    Создавать темы 26-Июл-2015 18:46

           

    [Цитировать]

    Местный колорит
    Couleur locale-Страна: Франция
    Жанр: трагикомедия
    Год выпуска: 2014
    Продолжительность: 01:26:06Перевод: Субтитры (русский перевод О.Першиной, Éclair Group)
    Cубтитры: русские, английские, французские, немецкие, нидерландские, румынские
    Оригинальная аудиодорожка: французский
    Режиссер: Колин Серро / Coline Serreau, Самюэль Тасинаж / Samuel Tasinaje
    В ролях: Изабель Нанти / Isabelle Nanty (Marianne), Валантен Бельгард-Шаппе / Valentin Bellegarde-Chappe (Nicolas), Александр Медведев / Alexandre Medvedev (Ivan), Кристиан Буйетт / Christian Bouillette (Le Père Mignard)
    Описание: У Марианны Риблон небольшой бизнес на юге Франции. Она вдова и свою дочь Шарлотту не видела уже почти 15 лет. Она живет жизнью, лишенной любви, и полностью отдает себя общественным делам, являясь активным член городского совета с ярко выраженными консервативными и расистскими взглядами. Однажды ее дочь сообщает по телефону, что Марианна давно бабушка, а ее внуку Николя уже 12 лет. Причем Николя отправляется пожить у бабушки, пока Шарлотта будет проходить курс терапии от лейкемии. На вокзале бабушка с внуком едва узнали друг друга, ведь внук оказался мулатом…
    Доп. информация: Hot Bird (13.0°E) TV5MONDE Europe DVB-S

    Качество видео: DVB
    Формат видео: DVD Video
    Видео: MPEG Video 2, 720x576@1024x576 (16:9), 25 fps, ~3226 kbps avg, 0.311 bit/pixel
    Аудио: MPEG Audio 2, 2 ch, 48 kHz, ~192.00 kbps avg - французский
    Формат субтитров: prerendered (IDX+SUB)

    DVDInfo, MediaInfo

    Title: [apreder]Couleur_locale(2014)DVBSize: 2.10 Gb ( 2 197 092,00 KBytes ) - DVD-5Enabled regions: 1, 2, 3, 4, 5, 6, 7, 8
    VTS_01 : Play Length: 01:26:06 Video: PAL 16:9 (720x576) VBR, Auto Letterboxed Audio: Francais (MPEG1, 2 ch) Subtitles: Russian English Francais Deutsch Nederlands Romanian
    ОбщееПолное имя : F:\My Torrents 3\[apreder]Couleur_locale(2014)DVB\VIDEO_TS\VTS_01_1.VOBФормат : MPEG-PSРазмер файла : 1024 МбайтПродолжительность : 41 м.Режим общего битрейта : ПеременныйОбщий поток : 3488 Кбит/сек
    ВидеоИдентификатор : 224 (0xE0)Формат : MPEG VideoВерсия формата : Version 2Профиль формата : Main@MainПараметр BVOP формата : ДаПараметр матрицы формата : ВыборочнаяПараметр GOP формата : M=4, N=12Format_Settings_PictureStructure : FrameПродолжительность : 41 м.Вид битрейта : ПеременныйБитрейт : 3226 Кбит/секШирина : 720 пикселейВысота : 576 пикселейСоотношение сторон : 16:9Частота кадров : 25,000 кадров/секСтандарт вещания : PALЦветовое пространство : YUVСубдискретизация насыщенности : 4:2:0Битовая глубина : 8 битТип развёртки : ЧересстрочнаяПорядок развёртки : Верхнее поле первоеМетод сжатия : С потерямиБит/(Пиксели*Кадры) : 0.311Временной код первого кадра : 00:00:00:00Оригинал временного кода : Group of pictures headerРазмер потока : 947 Мбайт (93%)
    АудиоИдентификатор : 192 (0xC0)Формат : MPEG AudioВерсия формата : Version 1Профиль формата : Layer 2Режим : Joint stereoРасширение режима : Intensity Stereo + MS StereoПродолжительность : 41 м.Вид битрейта : ПостоянныйБитрейт : 192 Кбит/секКаналы : 2 каналаЧастота : 48,0 КГцМетод сжатия : С потерямиРазмер потока : 56,4 Мбайт (6%)
    Текст #1Идентификатор : 189 (0xBD)-32 (0x20)Формат : RLEФормат/Информация : Run-length encodingРежим смешивания : DVD-Video
    Текст #2Идентификатор : 189 (0xBD)-33 (0x21)Формат : RLEФормат/Информация : Run-length encodingРежим смешивания : DVD-Video
    Текст #3Идентификатор : 189 (0xBD)-35 (0x23)Формат : RLEФормат/Информация : Run-length encodingРежим смешивания : DVD-Video
    Текст #4Идентификатор : 189 (0xBD)-36 (0x24)Формат : RLEФормат/Информация : Run-length encodingРежим смешивания : DVD-Video
    Текст #5Идентификатор : 189 (0xBD)-37 (0x25)Формат : RLEФормат/Информация : Run-length encodingРежим смешивания : DVD-Video

    Скриншот c названием фильма

    Скриншоты

    Резервные скриншоты


    Скачать .torrent

    Скачать торрент-файл бесплатно и на максимальной скорости!

    Как скачивать? · Что такое торрент? · Рейтинг и ограничения

    !ВНИМАНИЕ!
    Сайт не распространяет и не хранит электронные версии произведений, а занимается лишь лишь предоставлением доступа к создаваемому пользователями каталогу ссылок на торрент-файлы, которые содержат только списки хеш-сумм, убедительная просьба с жалобами обращаться напрямую к пользователю. Файлы для обмена на трекере предоставлены пользователями сайта, и администрация не несёт ответственности за их содержание. Просьба не заливать файлы, защищенные авторскими правами, а также файлы нелегального содержания!


    _________________
    [Профиль] [ЛС]
    Показать сообщения:    
    Ответить на тему

    Текущее время: Сегодня, в 10:41

    Часовой пояс: GMT + 2



    Вы не можете начинать темы
    Вы не можете отвечать на сообщения
    Вы не можете редактировать свои сообщения
    Вы не можете удалять свои сообщения
    Вы не можете голосовать в опросах
    Вы не можете прикреплять файлы к сообщениям
    Вы не можете скачивать файлы