BitTorrentTracker PerecTracker.org
BitTorrentTracker PerecTracker.org
    
Регистрация  ·  Вход
 
 · 
Забыли пароль?

  • [ATV3] Ганмен / The Gunman (Пьер Морель / Pierre Morel ) [2015, США, Испания, Великобритания, Франция, Боевик, триллер, драма, криминал, детектив, BDRip, HD (1080p)] DUB + Original + sub (eng)

    Ответить на тему
     
    Автор Сообщение

    rechyn

    Создавать темы 23-Июл-2015 14:05

           

    [Цитировать]

    Ганмен / The Gunman
    «На прицеле. На грани. На взводе»
    5.840 / 10 5.70 / 10
    -Год выпуска: 2015
    Страна: США, Испания, Великобритания, Франция
    Жанр: Боевик, триллер, драма, криминал, детектив
    Продолжительность: 01:55:40
    Перевод: Дублированный (iTunes)
    Оригинальная аудиодорожка: Есть
    Cубтитры: Английские, Английские SDH
    Режиссёр: Пьер Морель
    Сценарий: Дон МакФерсон, Пит Трэвис, Шон Пенн
    Продюсер: Рон Халперн, Шон Пенн, Эндрю Рона
    Оператор: Флавио Мартинес Лабиано
    Композитор: Марко Белтрами
    Художник: Эндрю Лоус, Джемма Фаурия, Стюарт Кернс
    Монтаж: Фридерик Тораваль
    В ролях: Шон Пенн, Хавьер Бардем, Рэй Уинстон, Жазмин Тринка, Идрис Эльба, Марк Райлэнс, Петер Францен, Билли Биллинхэм, Дэниэл Адегбойега, Адэ Ойефесо
    Бюджет: $40 000 000
    Сборы в США: $10 664 749
    Сборы в России: $286 732
    Мировая премьера: 16 февраля 2015
    Премьера (РФ): 18 июня 2015, «Вольга»
    Описание: Джим Террье — ганмен, международный наемник высочайшего класса. Но когда в Компании начинают подчищать хвосты, Джим сам становится мишенью. Чтобы выжить, Джим угрожает обнародовать имеющийся у него компромат и обращается к бывшему напарнику Феликсу. Однако у Феликса есть свои резоны желать, чтобы Джим Террье исчез из его жизни. Это Энни — женщина, которую они оба любят. За Джимом начинается смертельная охота по всей Европе, и у него не остается другого выбора, кроме как дать бой — один против всех.-Качество исходника: Blu-Ray (BlueBird)
    Качество: BDRip
    Тип: HD (1080p)
    Контейнер: M4V
    Видео: H.264, 1920x800, 2.40:1, 8 000 Kbps, 23.976 fps
    Аудио 1: Русский/Дублированный (iTunes), AAC / 2.0 / 157 Kbps / 48.0 KHz
    Аудио 2: Английский/Оригинальная дорожка , AAC / 2.0 / 157 Kbps / 48.0 KHz
    Аудио 3: Русский/Дублированный (iTunes), AC-3 / 5.1 / 384 Kbps / 48.0 KHz
    Аудио 4: Английский/Оригинальная дорожка , AC-3 / 5.1 / 640 Kbps / 48.0 KHz
    Субтитры 1: Английские полные
    Субтитры 2: Английские SDH
    -

    iTunes Meta Tags

    Sort Name: Gunman
    XID: Apple:vendor_id:2015-717310
    contentID: 978438811
    Copyright: © 2015 Open Road Films. All Rights Reserved.
    Screenwriters: Дон МакФерсон, Пит Трэвис, Шон Пенн
    Producers: Рон Халперн, Шон Пенн, Эндрю Рона
    Director: Пьер Морель
    Cast: Шон Пенн, Хавьер Бардем, Рэй Уинстон, Жазмин Тринка, Идрис Эльба, Марк Райлэнс, Петер Францен, Билли Биллинхэм, Дэниэл Адегбойега, Адэ Ойефесо, Валерий Сторожик, Сергей Чихачев
    Studio: Open Road Films
    Rating: 11
    Long Description: Джим Террье - ганмен, международный наемник высочайшего класса. Но когда в Компании начинают подчищать хвосты, Джим сам становится мишенью. Чтобы выжить, Джим угрожает обнародовать имеющийся у него компромат и обращается к бывшему напарнику Феликсу. Однако у Феликса есть свои резоны желать, чтобы Джим Террье исчез из его жизни. Это Энни - женщина, которую они оба любят. За Джимом начинается смертельная охота по всей Европе, и у него не остается другого выбора, кроме как дать бой - один против всех.
    Description: Джим Террье - ганмен, международный наемник высочайшего класса. Но когда в Компании начинают подчищать хвосты, Джим сам становится мишенью. Чтобы выжить, Джим угрожает обнародовать имеющийся у него компромат и обращается к бывшему напарнику Феликсу.
    Release Date: 2015-02-16T08:00:00Z
    Genre: Action & Adventure
    Artist: Pierre Morel
    Name: The Gunman (2015)

    MediaInfo

    General
    Complete name                            : /Users/imac/HandBrake/The Gunman (1080p HD).m4v
    Format                                   : MPEG-4
    Codec ID                                 : M4V
    File size                                : 7.55 GiB
    Duration                                 : 1h 55mn
    Overall bit rate mode                    : Variable
    Overall bit rate                         : 9 345 Kbps
    Movie name                               : The Gunman (2015)
    Performer                                : Pierre Morel
    Genre                                    : Action & Adventure
    Recorded date                            : UTC 2015-02-16 08:00:00
    Encoded date                             : UTC 2015-07-23 07:47:48
    Tagged date                              : UTC 2015-07-23 07:49:30
    Copyright                                : © 2015 Open Road Films. All Rights Reserved.
    Cover                                    : Yes
    sonm                                     : Gunman
    desc                                     : Джим Террье - ганмен, международный наемник высочайшего класса. Но когда в Компании начинают подчищать хвосты, Джим сам становится мишенью. Чтобы выжить, Джим угрожает обнародовать имеющийся у него компромат и обращается к бывшему напарнику Феликсу.
    ldes                                     : Джим Террье - ганмен, международный наемник высочайшего класса. Но когда в Компании начинают подчищать хвосты, Джим сам становится мишенью. Чтобы выжить, Джим угрожает обнародовать имеющийся у него компромат и обращается к бывшему напарнику Феликсу. Однако у Феликса есть свои резоны желать, чтобы Джим Террье исчез из его жизни. Это Энни - женщина, которую они оба любят. За Джимом начинается смертельная охота по всей Европе, и у него не остается другого выбора, кроме как дать бой - один против всех.
    hdvd                                     : 2
    stik                                     : 9
    rtng                                     : 0
    cnID                                     : 978438811
    xid                                      : Apple:vendor_id:2015-717310
    iTunEXTC                                 : mpaa|R|400|
    iTunMOVI                                 : <?xml version=\"1.0\" encoding=\"UTF-8\"?> / <!DOCTYPE plist PUBLIC \"-//Apple//DTD PLIST 1.0//EN\" \"http://anonym.to/?http://www.apple.com/DTDs/PropertyList-1.0.dtd\"> / <plist version=\"1.0\"> / <dict> /  <key>cast</key> /  <array> /   <dict> /    <key>name</key> /    <string>Шон Пенн</string> /   </dict> /   <dict> /    <key>name</key> /    <string>Хавьер Бардем</string> /   </dict> /   <dict> /    <key>name</key> /    <string>Рэй Уинстон</string> /   </dict> /   <dict> /    <key>name</key> /    <string>Жазмин Тринка</string> /   </dict> /   <dict> /    <key>name</key> /    <string>Идрис Эльба</string> /   </dict> /   <dict> /    <key>name</key> /    <string>Марк Райлэнс</string> /   </dict> /   <dict> /    <key>name</key> /    <string>Петер Францен</string> /   </dict> /   <dict> /    <key>name</key> /    <string>Билли Биллинхэм</string> /   </dict> /   <dict> /    <key>name</key> /    <string>Дэниэл Адегбойега</string> /   </dict> /   <dict> /    <key>name</key> /    <string>Адэ Ойефесо</string> /   </dict> /   <dict> /    <key>name</key> /    <string>Валерий Сторожик</string> /   </dict> /   <dict> /    <key>name</key> /    <string>Сергей Чихачев</string> /   </dict> /  </array> /  <key>directors</key> /  <array> /   <dict> /    <key>name</key> /    <string>Пьер Морель</string> /   </dict> /  </array> /  <key>producers</key> /  <array> /   <dict> /    <key>name</key> /    <string>Рон Халперн</string> /   </dict> /   <dict> /    <key>name</key> /    <string>Шон Пенн</string> /   </dict> /   <dict> /    <key>name</key> /    <string>Эндрю Рона</string> /   </dict> /  </array> /  <key>screenwriters</key> /  <array> /   <dict> /    <key>name</key> /    <string>Дон МакФерсон</string> /   </dict> /   <dict> /    <key>name</key> /    <string>Пит Трэвис</string> /   </dict> /   <dict> /    <key>name</key> /    <string>Шон Пенн</string> /   </dict> /  </array> /  <key>studio</key> /  <string>Open Road Films</string> / </dict> / </plist>
    Video #1
    ID                                       : 2
    Format                                   : AVC
    Format/Info                              : Advanced Video Codec
    Format profile                           : High@L4.0
    Format settings, CABAC                   : Yes
    Format settings, ReFrames                : 4 frames
    Codec ID                                 : avc1
    Codec ID/Info                            : Advanced Video Coding
    Duration                                 : 1h 55mn
    Bit rate mode                            : Variable
    Bit rate                                 : 8 000 Kbps
    Width                                    : 1 920 pixels
    Height                                   : 800 pixels
    Display aspect ratio                     : 2.40:1
    Frame rate mode                          : Variable
    Frame rate                               : 23.976 fps
    Minimum frame rate                       : 23.810 fps
    Maximum frame rate                       : 24.272 fps
    Color space                              : YUV
    Chroma subsampling                       : 4:2:0
    Bit depth                                : 8 bits
    Scan type                                : Progressive
    Bits/(Pixel*Frame)                       : 0.217
    Stream size                              : 6.46 GiB (86%)
    Writing library                          : x264 core 142 r2479 dd79a61
    Encoding settings                        : cabac=1 / ref=4 / deblock=1:-2:-2 / analyse=0x3:0x133 / me=umh / subme=10 / psy=1 / psy_rd=1.00:0.15 / mixed_ref=1 / me_range=32 / chroma_me=1 / trellis=2 / 8x8dct=1 / cqm=0 / deadzone=21,11 / fast_pskip=0 / chroma_qp_offset=-3 / threads=36 / lookahead_threads=6 / sliced_threads=0 / nr=0 / decimate=0 / interlaced=0 / bluray_compat=0 / constrained_intra=0 / bframes=16 / b_pyramid=2 / b_adapt=2 / b_bias=0 / direct=3 / weightb=1 / open_gop=0 / weightp=2 / keyint=240 / keyint_min=24 / scenecut=40 / intra_refresh=0 / rc_lookahead=60 / rc=2pass / mbtree=1 / bitrate=8000 / ratetol=1.0 / qcomp=0.70 / qpmin=0 / qpmax=69 / qpstep=4 / cplxblur=20.0 / qblur=0.5 / vbv_maxrate=25000 / vbv_bufsize=25000 / nal_hrd=none / filler=0 / ip_ratio=1.40 / aq=1:1.00
    Language                                 : English
    Encoded date                             : UTC 2015-07-23 07:47:48
    Tagged date                              : UTC 2015-07-23 07:48:08
    Color primaries                          : BT.709-5, BT.1361, IEC 61966-2-4, SMPTE RP177
    Transfer characteristics                 : BT.709-5, BT.1361
    Matrix coefficients                      : BT.709-5, BT.1361, IEC 61966-2-4 709, SMPTE RP177
    Video #2
    ID                                       : 9
    Format                                   : JPEG
    Codec ID                                 : jpeg
    Duration                                 : 1h 55mn
    Bit rate mode                            : Variable
    Bit rate                                 : 1 061 bps
    Width                                    : 640 pixels
    Height                                   : 266 pixels
    Display aspect ratio                     : 2.40:1
    Frame rate mode                          : Variable
    Frame rate                               : 0.003 fps
    Minimum frame rate                       : 0.002 fps
    Maximum frame rate                       : 0.005 fps
    Color space                              : YUV
    Chroma subsampling                       : 4:2:0
    Bit depth                                : 8 bits
    Compression mode                         : Lossy
    Bits/(Pixel*Frame)                       : 2.077
    Stream size                              : 863 KiB (0%)
    Language                                 : English
    Encoded date                             : UTC 2015-07-23 07:48:19
    Tagged date                              : UTC 2015-07-23 07:48:20
    Audio #1
    ID                                       : 1
    Format                                   : AAC
    Format/Info                              : Advanced Audio Codec
    Format profile                           : LC
    Codec ID                                 : 40
    Duration                                 : 1h 55mn
    Bit rate mode                            : Variable
    Bit rate                                 : 157 Kbps
    Maximum bit rate                         : 255 Kbps
    Channel(s)                               : 2 channels
    Channel positions                        : Front: L R
    Sampling rate                            : 48.0 KHz
    Compression mode                         : Lossy
    Stream size                              : 130 MiB (2%)
    Language                                 : Russian
    Encoded date                             : UTC 2015-07-23 07:47:48
    Tagged date                              : UTC 2015-07-23 07:48:09
    Audio #2
    ID                                       : 3
    Format                                   : AAC
    Format/Info                              : Advanced Audio Codec
    Format profile                           : LC
    Codec ID                                 : 40
    Duration                                 : 1h 55mn
    Bit rate mode                            : Variable
    Bit rate                                 : 157 Kbps
    Maximum bit rate                         : 255 Kbps
    Channel(s)                               : 2 channels
    Channel positions                        : Front: L R
    Sampling rate                            : 48.0 KHz
    Compression mode                         : Lossy
    Stream size                              : 130 MiB (2%)
    Language                                 : English
    Encoded date                             : UTC 2015-07-23 07:47:48
    Tagged date                              : UTC 2015-07-23 07:48:09
    Audio #3
    ID                                       : 4
    Format                                   : AC-3
    Format/Info                              : Audio Coding 3
    Mode extension                           : CM (complete main)
    Format settings, Endianness              : Big
    Codec ID                                 : ac-3
    Duration                                 : 1h 55mn
    Bit rate mode                            : Constant
    Bit rate                                 : 384 Kbps
    Channel(s)                               : 6 channels
    Channel positions                        : Front: L C R, Side: L R, LFE
    Sampling rate                            : 48.0 KHz
    Bit depth                                : 16 bits
    Compression mode                         : Lossy
    Stream size                              : 318 MiB (4%)
    Language                                 : Russian
    Encoded date                             : UTC 2015-07-23 07:47:48
    Tagged date                              : UTC 2015-07-23 07:47:55
    Audio #4
    ID                                       : 5
    Format                                   : AC-3
    Format/Info                              : Audio Coding 3
    Mode extension                           : CM (complete main)
    Format settings, Endianness              : Big
    Codec ID                                 : ac-3
    Duration                                 : 1h 55mn
    Bit rate mode                            : Constant
    Bit rate                                 : 640 Kbps
    Channel(s)                               : 6 channels
    Channel positions                        : Front: L C R, Side: L R, LFE
    Sampling rate                            : 48.0 KHz
    Bit depth                                : 16 bits
    Compression mode                         : Lossy
    Stream size                              : 529 MiB (7%)
    Language                                 : English
    Encoded date                             : UTC 2015-07-23 07:47:48
    Tagged date                              : UTC 2015-07-23 07:47:55
    Text #1
    ID                                       : 6
    Format                                   : Timed text
    Muxing mode                              : sbtl
    Codec ID                                 : tx3g
    Duration                                 : 1h 48mn
    Bit rate mode                            : Variable
    Bit rate                                 : 58 bps
    Stream size                              : 46.4 KiB (0%)
    Language                                 : English
    Encoded date                             : UTC 2015-07-23 07:47:48
    Tagged date                              : UTC 2015-07-23 07:47:48
    Text #2
    ID                                       : 7
    Format                                   : Timed text
    Muxing mode                              : sbtl
    Codec ID                                 : tx3g
    Duration                                 : 1h 48mn
    Bit rate mode                            : Variable
    Bit rate                                 : 64 bps
    Stream size                              : 50.9 KiB (0%)
    Language                                 : English
    Encoded date                             : UTC 2015-07-23 07:47:48
    Tagged date                              : UTC 2015-07-23 07:47:48
    Text #3
    ID                                       : 8
    Format                                   : Apple text
    Codec ID                                 : text
    Duration                                 : 1h 55mn
    Bit rate mode                            : Constant
    Bit rate                                 : 1 bps
    Stream size                              : 520 Bytes (0%)
    Encoded date                             : UTC 2015-07-23 07:48:09
    Tagged date                              : UTC 2015-07-23 07:48:09
    Menu
    00:00:00.000                             : 00:00:00.000
    00:04:48.830                             : 00:04:48.747
    00:10:30.046                             : 00:10:29.963
    00:14:23.071                             : 00:14:22.987
    00:18:00.871                             : 00:18:00.788
    00:23:17.479                             : 00:23:17.396
    00:27:53.213                             : 00:27:53.130
    00:34:14.970                             : 00:34:14.886
    00:39:51.222                             : 00:39:51.139
    00:45:51.666                             : 00:45:51.582
    00:50:20.017                             : 00:50:19.934
    00:58:10.487                             : 00:58:10.404
    01:04:37.248                             : 01:04:37.165
    01:08:27.562                             : 01:08:27.478
    01:14:44.313                             : 01:14:44.230
    01:21:37.810                             : 01:21:37.726
    01:31:18.306                             : 01:31:18.223
    01:38:39.413                             : 01:38:39.330
    01:45:34.453                             : 01:45:34.370
    01:49:15.924                             : 01:49:15.841

    x264 лог

    x264 [info]: frame I:1246  Avg QP:13.90  size:204214
    x264 [info]: frame P:46215 Avg QP:17.01  size: 69390
    x264 [info]: frame B:118932 Avg QP:17.98  size: 29220
    x264 [info]: consecutive B-frames:  5.9%  6.1% 17.4% 20.1% 16.0% 29.8%  3.0%  0.5%  0.4%  0.2%  0.1%  0.1%  0.0%  0.1%  0.0%  0.0%  0.2%
    x264 [info]: mb I  I16..4: 35.3% 44.9% 19.8%
    x264 [info]: mb P  I16..4: 12.8% 20.0%  1.8%  P16..4: 35.6% 14.9%  8.3%  0.4%  0.2%    skip: 5.9%
    x264 [info]: mb B  I16..4:  3.8%  2.2%  0.2%  B16..8: 33.8% 10.4%  2.5%  direct: 8.2%  skip:38.8%  L0:41.5% L1:43.8% BI:14.7%
    x264 [info]: 8x8 transform intra:50.1% inter:48.8%
    x264 [info]: direct mvs  spatial:98.6% temporal:1.4%
    x264 [info]: coded y,uvDC,uvAC intra: 90.6% 84.9% 72.0% inter: 26.1% 27.9% 14.1%
    x264 [info]: i16 v,h,dc,p: 10%  7% 51% 32%
    x264 [info]: i8 v,h,dc,ddl,ddr,vr,hd,vl,hu: 13% 11% 12%  8% 10% 12% 11% 11% 13%
    x264 [info]: i4 v,h,dc,ddl,ddr,vr,hd,vl,hu: 14% 11% 10%  8% 13% 13% 12%  9% 11%
    x264 [info]: i8c dc,h,v,p: 53% 17% 16% 14%
    x264 [info]: Weighted P-Frames: Y:2.3% UV:1.2%
    x264 [info]: ref P L0: 54.6%  9.5% 24.4%  9.3%  2.2%  0.0%
    x264 [info]: ref B L0: 82.8% 14.2%  3.0%
    x264 [info]: ref B L1: 92.0%  8.0%
    x264 [info]: kb/s:7995.99

    Скриншоты

    -

    Релиз подготовлен для просмотра на Apple TV, iPad, iPhone, iPod Touch.
    Для просмотра данного релиза на компьютере с ОС Windows рекомендуется использовать VLC media player
    Скачать .torrent

    Скачать торрент-файл бесплатно и на максимальной скорости!

    Как скачивать? · Что такое торрент? · Рейтинг и ограничения

    !ВНИМАНИЕ!
    Сайт не распространяет и не хранит электронные версии произведений, а занимается лишь лишь предоставлением доступа к создаваемому пользователями каталогу ссылок на торрент-файлы, которые содержат только списки хеш-сумм, убедительная просьба с жалобами обращаться напрямую к пользователю. Файлы для обмена на трекере предоставлены пользователями сайта, и администрация не несёт ответственности за их содержание. Просьба не заливать файлы, защищенные авторскими правами, а также файлы нелегального содержания!


    _________________
    [Профиль] [ЛС]
    Показать сообщения:    
    Ответить на тему

    Текущее время: Сегодня, в 01:54

    Часовой пояс: GMT + 2



    Вы не можете начинать темы
    Вы не можете отвечать на сообщения
    Вы не можете редактировать свои сообщения
    Вы не можете удалять свои сообщения
    Вы не можете голосовать в опросах
    Вы не можете прикреплять файлы к сообщениям
    Вы не можете скачивать файлы