BitTorrentTracker PerecTracker.org
BitTorrentTracker PerecTracker.org
    
Регистрация  ·  Вход
 
 · 
Забыли пароль?

  • Невинность на продажу / Trade of Innocents (Кристофер М. Бессетт / Christopher M. Bessette) [2012, США, Таиланд, триллер, драма, DVDRip] DVO (2D) + Original Eng

    Ответить на тему
     
    Автор Сообщение

    Light

    Создавать темы 23-Июл-2015 09:53

           

    [Цитировать]

    Невинность на продажу /
    Trade of Innocents

    Страна: США, Таиланд
    Жанр: триллер, драма
    Год выпуска: 2012
    Продолжительность: 01:30:26
    Перевод: Любительский (двухголосый закадровый) Skyworker , озвучка: 2D
    Cубтитры: нет
    Оригинальная аудиодорожка: английский
    Режиссер: Кристофер М. Бессетт / Christopher M. Bessette
    В ролях: Дермот Малруни, Мира Сорвино, Джон Биллингсли, Кью Чинх, Витхая Пансрингарм, Сахайак Бунсанакит, Треу Трэн, Джейн Ле, Джирантанин Питакпорнтракул, Доллар Тан,Танапол Чуксрида, Миа Сунь.
    Описание: События фильма разворачиваются на глухих улицах небольшого туристического городка, в современной Азии. Здесь, в грязной комнате, на кровати, с грязными простынями маленькая девочка ждет следующего мужчину.
    Алекс — человек, занимающийся изучением торговли людьми, изображая её следующего клиента, дабы оказаться в центре всего этого бизнеса, ведет переговоры с сутенером, якобы намереваясь использовать ребенка. Клэр, жена Алекса, тем временем присоединяется к группе добровольцев, работающих в приюте, для спасенных девочек.
    Параллельные сюжеты переплетаются на фоне опасного человеческого мира торговли и выкупа людей.
    Доп. информация:


    Сэмпл: http://multi-up.com/1059619
    Качество видео: DVDRip
    Формат видео: AVI
    Видео: XviD, 1 989 Kbps, 720x304 (2.35:1), 23.976 fps
    Аудио: AC-3, 192 Kbps, 48.0 KHz, 16 bits, 2 ch

    MediaInfo

    General
    Complete name : C:\Users\User\Downloads\Невинность на продажу\Невинность на продажу.DVDRip.2012.avi
    Format : AVI
    Format/Info : Audio Video Interleave
    File size : 1.38 GiB
    Duration : 1h 30mn
    Overall bit rate : 2 190 Kbps
    Writing application : VirtualDubMod 1.5.10.3 | www.virtualdub-fr.org || (build 2550/release)
    Writing library : VirtualDubMod build 2550/release
    Video
    ID : 0
    Format : MPEG-4 Visual
    Format profile : Advanced Simple@L5
    Format settings, BVOP : 1
    Format settings, QPel : No
    Format settings, GMC : No warppoints
    Format settings, Matrix : Default (MPEG)
    Codec ID : XVID
    Codec ID/Hint : XviD
    Duration : 1h 30mn
    Bit rate : 1 989 Kbps
    Width : 720 pixels
    Height : 304 pixels
    Display aspect ratio : 2.35:1
    Frame rate : 23.976 fps
    Color space : YUV
    Chroma subsampling : 4:2:0
    Bit depth : 8 bits
    Scan type : Progressive
    Compression mode : Lossy
    Bits/(Pixel*Frame) : 0.379
    Stream size : 1.26 GiB (91%)
    Writing library : XviD 1.2.1 (UTC 2008-12-04)
    Audio
    ID : 1
    Format : AC-3
    Format/Info : Audio Coding 3
    Mode extension : CM (complete main)
    Format settings, Endianness : Big
    Codec ID : 2000
    Duration : 1h 30mn
    Bit rate mode : Constant
    Bit rate : 192 Kbps
    Channel(s) : 2 channels
    Channel positions : Front: L R
    Sampling rate : 48.0 KHz
    Bit depth : 16 bits
    Compression mode : Lossy
    Stream size : 124 MiB (9%)
    Alignment : Split accross interleaves
    Interleave, duration : 42 ms (1.00 video frame)
    Interleave, preload duration : 500 ms

    Скриншот c названием фильма

    Скриншоты





    Скачать .torrent

    Скачать торрент-файл бесплатно и на максимальной скорости!

    Как скачивать? · Что такое торрент? · Рейтинг и ограничения

    !ВНИМАНИЕ!
    Сайт не распространяет и не хранит электронные версии произведений, а занимается лишь лишь предоставлением доступа к создаваемому пользователями каталогу ссылок на торрент-файлы, которые содержат только списки хеш-сумм, убедительная просьба с жалобами обращаться напрямую к пользователю. Файлы для обмена на трекере предоставлены пользователями сайта, и администрация не несёт ответственности за их содержание. Просьба не заливать файлы, защищенные авторскими правами, а также файлы нелегального содержания!


    _________________
    [Профиль] [ЛС]
    Показать сообщения:    
    Ответить на тему

    Текущее время: Сегодня, в 08:43

    Часовой пояс: GMT + 2



    Вы не можете начинать темы
    Вы не можете отвечать на сообщения
    Вы не можете редактировать свои сообщения
    Вы не можете удалять свои сообщения
    Вы не можете голосовать в опросах
    Вы не можете прикреплять файлы к сообщениям
    Вы не можете скачивать файлы