BitTorrentTracker PerecTracker.org
BitTorrentTracker PerecTracker.org
    
Регистрация  ·  Вход
 
 · 
Забыли пароль?

  • Последний Единорог / The Last Unicorn (Джулз Басс / Jules Bass, Артур Ранкин мл. / Arthur Rankin Jr.) [1982, мультфильм, фэнтези, семейный, HDRip] MVO (РТР)

    Ответить на тему
     
    Автор Сообщение

    rechyn

    Создавать темы 22-Июл-2015 21:17

           

    [Цитировать]

    Последний Единорог / The Last Unicorn-Прекрасная сказка о невероятных приключениях в далёкой волшебной стране.
    Юный единорог, знающий секреты магии, отправляется в опасное путешествие, чтобы разыскать и спасти своих сородичей.
    -Год выпуска: 1982
    Страна: США, Великобритания, Япония
    Жанр: мультфильм, фэнтези, семейный
    Продолжительность: 01:33:03
    Перевод: Профессиональный (многоголосый закадровый) - РТР
    Русские субтитры: нет
    Режиссёр: Джулз Басс / Jules Bass, Артур Ранкин мл. / Arthur Rankin Jr.
    Роли озвучивали: Алан Аркин (Schmendrick), Джефф Бриджес (Prince Lir), Миа Фэрроу (Unicorn / Amalthea), Тэмми Граймз (Molly Grue), Роберт Клейн (The Butterfly), Анджела Лэнсбери (Mommy Fortuna), Кристофер Ли (King Haggard), Кинен Уинн (Captain Cully / Harpy), Пол Фрис (Mabruk), Рене Обержонуа (The Skull)-Мировая премьера: 19 ноября 1982-Описание: В далекой волшебной стране в сиреневой роще жил юный прекрасный единорог, знающий секреты магии. Однажды он узнал, что все его сородичи исчезли с лица земли, и он может стать последним единорогом на свете. И тогда единорог покинул свою рощу и отправился в долгое и опасное путешествие, чтобы разыскать и спасти своих сородичей. Много приключении пришлось ему пережить и многих опасных врагов довелось повстречать-свиноподобную ведьму Матушку Фортуну, шайку разбойников капитана Калли, злобного и жадного короля Хэггарда. Но с помощью верных друзей — волшебника-недоучки Шмендрика, девушки Молли и прекрасного принца Лира -единорогу удалось одолеть огромного и страшного Красного Быка и освободить своих собратьев-единорогов.-Благодарности:
    Chip@lin0 - исходник видео.
    Nekontroliruemij_devil - собственная запись перевода с телеканала РТР в начале 2000-х годов через видеомагнитофон и оцифровка с видеокассеты.
    JUSTKANT - синхронизация перевода.-Данный перевод на трекере появляется впервые.
    На русский язык фильм озвучен фирмой "СВ-Кадр" по заказу ВГТРК в 1996 году.
    Часть мужских ролей озвучивает Андрей Бархударов.-
    Рейтинг

    MPAA: G - Нет возрастных ограничений.-Качество: HDRip
    Формат: AVI -> //SAMPLE//
    Видео: XviD, 720x384 (1,85:1), 23.976 fps, 2009 kbps avg
    Аудио:
    1 - 48 khz, AC3 Dolby Digital, 2/0 (L,R) ch, ~192 kbps [РТР] VHSRip

    Подробные технические данные

    GeneralComplete name : E:\Торрент Файлы\Будущие Релизы на Трекере\1.35 - 1.46 и более гб\Последний Единорог (РТР).aviFormat : AVIFormat/Info : Audio Video InterleaveFile size : 1.44 GiBDuration : 1h 33mnOverall bit rate : 2 211 KbpsWriting application : VirtualDubMod 1.5.10.3 | www.virtualdub-fr.org || (build 2550/release)Writing library : VirtualDubMod build 2550/release
    VideoID : 0Format : MPEG-4 VisualFormat profile : Advanced Simple@L5Format settings, BVOP : 1Format settings, QPel : NoFormat settings, GMC : No warppointsFormat settings, Matrix : Default (H.263)Codec ID : XVIDCodec ID/Hint : XviDDuration : 1h 33mnBit rate : 2 009 KbpsWidth : 720 pixelsHeight : 384 pixelsDisplay aspect ratio : 1.85:1Frame rate : 23.976 fpsColor space : YUVChroma subsampling : 4:2:0Bit depth : 8 bitsScan type : ProgressiveCompression mode : LossyBits/(Pixel*Frame) : 0.303Stream size : 1.31 GiB (91%)Writing library : XviD 58
    AudioID : 1Format : AC-3Format/Info : Audio Coding 3Mode extension : CM (complete main)Format settings, Endianness : BigCodec ID : 2000Duration : 1h 33mnBit rate mode : ConstantBit rate : 192 KbpsChannel(s) : 2 channelsChannel positions : Front: L RSampling rate : 48.0 KHzCompression mode : LossyStream size : 128 MiB (9%)Alignment : Split accross interleavesInterleave, duration : 42 ms (1.00 video frame)Interleave, preload duratio : 500 ms

    Скриншоты


    _________________
    [Профиль] [ЛС]
    Показать сообщения:    
    Ответить на тему

    Текущее время: Сегодня, в 04:10

    Часовой пояс: GMT + 2



    Вы не можете начинать темы
    Вы не можете отвечать на сообщения
    Вы не можете редактировать свои сообщения
    Вы не можете удалять свои сообщения
    Вы не можете голосовать в опросах
    Вы не можете прикреплять файлы к сообщениям
    Вы не можете скачивать файлы