BitTorrentTracker PerecTracker.org
BitTorrentTracker PerecTracker.org
    
Регистрация  ·  Вход
 
 · 
Забыли пароль?

  • Опасная иллюзия / The Necessary Death of Charlie Countryman (Фредрик Бонд / Fredrik Bond) [2013, США, Румыния, Триллер, криминал, боевик, драма, мелодрама, комедия, BDRip] Dub + Original Eng + subs (Rus, Eng, Eng SDH)

    Ответить на тему
     
    Автор Сообщение

    Light

    Создавать темы 22-Июл-2015 08:41

           

    [Цитировать]

    Опасная иллюзия / The Necessary Death of Charlie Countryman-Год выпуска: 2013
    Страна: США, Румыния
    Жанр: Триллер, криминал, боевик, драма, мелодрама, комедия
    Продолжительность: 01:43:36
    Перевод: Профессиональный (полное дублирование) Blu-Ray RUS
    + Оригинальная звуковая дорожка
    Субтитры: Русские (Notabenoid), английские (полные; SDH) (внешние, srt*)-Режиссер: Фредрик Бонд / Fredrik Bond
    В ролях: Шайа ЛаБаф, Эван Рэйчел Вуд, Мадс Миккельсен, Тиль Швайгер, Руперт Гринт, Джеймс Бакли, Ион Карамитру, Винсент Д’Онофрио, Мелисса Лео, Андрей Финти
    О фильме: Чарли Кантримен живет в США, спасаясь с помощью галлюциногенных веществ от скучной работы и тоски ничем не примечательного существования. Во время очередного наркотического трипа Чарли видит свою покойную мать, которая настоятельно рекомендует сыну съездить в Бухарест. Он не смеет ослушаться маму — и там герой фильма знакомится с девушкой своей мечты, а заодно — с местными криминальными порядками, из-за чего рискует в скором времени расстаться с жизнью.-Релиз:
    Автор: The next
    Качество: BDRip (источник: / Blu-ray / 1080p)
    Формат: AVI
    Видео: 704x400 (1.76:1), 23.976 fps, XviD build 66 ~2111 kbps avg, 0.31 bit/pixel
    Аудио #1: 48 kHz, AC3 Dolby Digital, 3/2 (L,C,R,l,r) + LFE ch, ~448.00 kbps avg rus
    Аудио #2: 48 kHz, AC3 Dolby Digital, 3/2 (L,C,R,l,r) + LFE ch, ~448.00 kbps avg eng
    Размер: 2233.46 Mb (1/2 DVD)
    Скачать: Семпл-

    Кадры из фильма


    -

    Mi

    Формат : AVI
    Формат/Информация : Audio Video Interleave
    Профиль формата : OpenDML
    Размер файла : 2,18 Гбайт
    Продолжительность : 1 ч. 43 м.
    Общий поток : 3014 Кбит/сек
    Название фильма : Опасная иллюзия / The Necessary Death of Charlie Countryman (2013) BDRip
    Режиссёр : The next
    Программа кодирования : VirtualDubMod 1.5.10.2 (build 2542/release)
    Примечание : 16.07.2015
    Видео
    Идентификатор : 0
    Формат : MPEG-4 Visual
    Профиль формата : Advanced Simple@L5
    Параметр BVOP формата : 1
    Параметр QPel формата : Нет
    Параметр GMC формата : Без точки перехода
    Параметр матрицы формата : Выборочная
    Идентификатор кодека : XVID
    Идентификатор кодека/Подсказка : XviD
    Продолжительность : 1 ч. 43 м.
    Битрейт : 2100 Кбит/сек
    Ширина : 704 пикселя
    Высота : 400 пикселей
    Соотношение сторон : 16:9
    Частота кадров : 23,976 кадра/сек
    Цветовое пространство : YUV
    Субдискретизация насыщенности : 4:2:0
    Битовая глубина : 8 бит
    Тип развёртки : Прогрессивная
    Метод сжатия : С потерями
    Бит/(Пиксели*Кадры) : 0.311
    Размер потока : 1,52 Гбайт (70%)
    Библиотека кодирования : XviD 66
    Аудио #1
    Идентификатор : 1
    Формат : AC-3
    Формат/Информация : Audio Coding 3
    Расширение режима : CM (complete main)
    Параметр Endianness формата : Big
    Идентификатор кодека : 2000
    Продолжительность : 1 ч. 43 м.
    Вид битрейта : Постоянный
    Битрейт : 448 Кбит/сек
    Каналы : 6 каналов
    Расположение каналов : Front: L C R, Side: L R, LFE
    Частота : 48,0 КГц
    Битовая глубина : 16 бит
    Метод сжатия : С потерями
    Размер потока : 332 Мбайт (15%)
    Выравнивание : Разделение по промежуткам
    Продолжительность промежутка : 42 мс. (1,00 видеокадр)
    Время предзагрузки промежутка : 500 мс.
    Аудио #2
    Идентификатор : 2
    Формат : AC-3
    Формат/Информация : Audio Coding 3
    Расширение режима : CM (complete main)
    Параметр Endianness формата : Big
    Идентификатор кодека : 2000
    Продолжительность : 1 ч. 43 м.
    Вид битрейта : Постоянный
    Битрейт : 448 Кбит/сек
    Каналы : 6 каналов
    Расположение каналов : Front: L C R, Side: L R, LFE
    Частота : 48,0 КГц
    Битовая глубина : 16 бит
    Метод сжатия : С потерями
    Размер потока : 332 Мбайт (15%)
    Выравнивание : Разделение по промежуткам
    Продолжительность промежутка : 42 мс. (1,00 видеокадр)
    Время предзагрузки промежутка : 500 мс.
    -
    Скачать .torrent

    Скачать торрент-файл бесплатно и на максимальной скорости!

    Как скачивать? · Что такое торрент? · Рейтинг и ограничения

    !ВНИМАНИЕ!
    Сайт не распространяет и не хранит электронные версии произведений, а занимается лишь лишь предоставлением доступа к создаваемому пользователями каталогу ссылок на торрент-файлы, которые содержат только списки хеш-сумм, убедительная просьба с жалобами обращаться напрямую к пользователю. Файлы для обмена на трекере предоставлены пользователями сайта, и администрация не несёт ответственности за их содержание. Просьба не заливать файлы, защищенные авторскими правами, а также файлы нелегального содержания!


    _________________
    [Профиль] [ЛС]
    Показать сообщения:    
    Ответить на тему

    Текущее время: Сегодня, в 22:40

    Часовой пояс: GMT + 2



    Вы не можете начинать темы
    Вы не можете отвечать на сообщения
    Вы не можете редактировать свои сообщения
    Вы не можете удалять свои сообщения
    Вы не можете голосовать в опросах
    Вы не можете прикреплять файлы к сообщениям
    Вы не можете скачивать файлы