BitTorrentTracker PerecTracker.org
BitTorrentTracker PerecTracker.org
    
Регистрация  ·  Вход
 
 · 
Забыли пароль?

  • Свет над Россией (Сергей Юткевич) [1947, Историко-революционный, DVDRip]

    Ответить на тему
     
    Автор Сообщение

    Light

    Создавать темы 21-Июл-2015 20:05

           

    [Цитировать]

    Свет над Россией
    Жанр: Историко-революционный
    Страна: СССР
    Студия: Мосфильм
    Год выпуска: 1947
    Продолжительность: 01:08:25.680 (102642 frames)
    Режиссёр: Сергей Юткевич
    В ролях:
    Николай Колесников … Владимир Ильич Ленин
    Михаил Геловани … Иосиф Виссарионович Сталин
    Василий Марков … Феликс Эдмундович Дзержинский
    Борис Оленин … Глеб Максимилианович Кржижановский
    Николай Охлопков … Антон Иванович Забелин
    Кира Головко … Маша Забелина (в титрах - К.Иванова)
    Николай Крючков … Александр Рыбаков, матрос
    Вениамин Зускин … часовщик
    Сергей Ценин … Герберт Уэллс
    Василий Ванин … солдат
    Борис Толмазов … Ласточкин, красноармеец
    Владимир Марьев … красноармеец
    Сергей Филиппов … спекулянт
    Елена Елина … Лидия Михайловна, жена Забелина
    Мария Яроцкая … Даша, прислуга у Забелиных
    Лидия Сухаревская … Елена Вячеславовна, дама испуганная
    Елена Тяпкина … дама с вязанием
    Ростислав Плятт … Оптимист
    Описание: Пo мотивам пьесы Н.Ф.Погодина "Кремлёвскиe курaнты".
    В фильме показаны воспоминания матроса, прошедшего Октябрьскую революцию, охранявшего В.И.Ленина и воевавшего с фашистами в Великую Отечественную. Ключевым моментом фильма является воплощение в жизнь Ленинского плана об электрификации всей страны (ГОЭЛРО), выполненным страной под руководством партии большевиков и председательством В.И.Ленина и И.В.Сталина в 1920-30-е годы.
    Дополнительная информация: Релиз:
    Автор рипа: pmv
    Исходник DVD5 взят с раздачи Belyakin (http://perectracker.org/viewtopic.php?t=1951337), за что ему большое спасибо!
    IMDb = - -
    Кинопоиск = 6.667 (38) -
    Интересно:
    История ленты «Свет над Россией» весьма примечательна для сталинского времени. Кажется, все сулило огромный успех – добротный сценарий по знаменитой пьесе «Кремлевские куранты», с успехом шедшей в десятках театрах, выдающийся режиссер Сергей Юткевич и звездный состав исполнителей. Вениамин Зускин – часовщик, тот самый часовщик, который заставил кремлевские куранты исполнять «Интернационал». Комиссия приняла фильм, и Юткевич улетел в Сочи. Все вздохнули с облегчением.
    В СССР выпускалось мало фильмов и, как правило, все смотрел сам Сталин. От его настроения после просмотра зависело, выйдет ли вообще картина на экраны, какую определят категорию и многое другое.
    Сталин просмотрел «Свет над Россией» и в гневе покинул демонстрационный зал. Он ничего не сказал, не сделал ни одного замечания, тем не менее, по Министерству кинематографии был издан приказ: фильм «Свет над Россией» политически порочный.
    Оказывается, на просмотре министр Большаков сидел позади Сталина и фиксировал неодобрительные хмыкания товарища Сталина, которому фильм не понравился. Прежде всего, недостаточно обрисован образ самого Сталина.
    Как ни странным может показаться, но во многом виновником запрета был ... Зускин. Для него никогда ничего не значило - роль главная или второстепенная. Он всегда относился к ней как решающей. Вот и небольшая роль часовщика была сыграна так, что она затмила все остальные. Потом Юткевичу передали замечание Сталина: в фильме, мол, много часовщика. Великий вождь не потерпел такого.

    ПРОСЬБА к СКАЧАВШИМ. НЕ УХОДИТЕ С РАЗДАЧИ, ПОМОГИТЕ ДРУГИМ СКАЧАТЬ!!!
    Качество видео: DVDRip
    Формат видео: AVI
    Видео: 704x528 (1.33:1), 25 fps, XviD build 73 ~1990 kbps avg, 0.21 bit/pixel
    Аудио: 48 kHz, AC3 Dolby Digital, 2/0 (L,R) ch, ~256.00 kbps avg

    MediaInfo

    General
    Complete name : D:\torrents\Свет над Россией (1947).avi
    Format : AVI
    Format/Info : Audio Video Interleave
    File size : 1.08 GiB
    Duration : 1h 8mn
    Overall bit rate : 2 256 Kbps
    Writing application : VirtualDubMod 1.5.10.3 | www.virtualdub-fr.org || (build 2550/release)
    Writing library : VirtualDubMod build 2550/release
    Video
    ID : 0
    Format : MPEG-4 Visual
    Format profile : Advanced Simple@L5
    Format settings, BVOP : Yes
    Format settings, QPel : No
    Format settings, GMC : No warppoints
    Format settings, Matrix : Default (H.263)
    Codec ID : XVID
    Codec ID/Hint : XviD
    Duration : 1h 8mn
    Bit rate : 1 990 Kbps
    Width : 704 pixels
    Height : 528 pixels
    Display aspect ratio : 4:3
    Frame rate : 25.000 fps
    Resolution : 8 bits
    Colorimetry : 4:2:0
    Scan type : Progressive
    Bits/(Pixel*Frame) : 0.214
    Stream size : 974 MiB (88%)
    Writing library : XviD 73
    Audio
    ID : 1
    Format : AC-3
    Format/Info : Audio Coding 3
    Codec ID : 2000
    Duration : 1h 8mn
    Bit rate mode : Constant
    Bit rate : 256 Kbps
    Channel(s) : 2 channels
    Channel positions : Front: L R
    Sampling rate : 48.0 KHz
    Stream size : 125 MiB (11%)
    Alignment : Aligned on interleaves
    Interleave, duration : 40 ms (1.00 video frame)
    Interleave, preload duration : 512 ms

    Скриншот с названием фильма

    Скриншоты

    Сравнение с раздачей ludwig61 от 23-Июня-2009

    ludwig61, TVRip, 720 x 536, 763 Mb < > CaCa48, DVDrip, 704 x 528, 1.08 Gb
    http://perectracker.org/viewtopic.php?t=1958237
    http://screenshotcomparison.com/comparison/135539
    МОИ РАЗДАЧИ НА РУТРЕКЕРЕ: http://perectracker.org/tracker.php?rid=27390064
    Скачать .torrent

    Скачать торрент-файл бесплатно и на максимальной скорости!

    Как скачивать? · Что такое торрент? · Рейтинг и ограничения

    !ВНИМАНИЕ!
    Сайт не распространяет и не хранит электронные версии произведений, а занимается лишь лишь предоставлением доступа к создаваемому пользователями каталогу ссылок на торрент-файлы, которые содержат только списки хеш-сумм, убедительная просьба с жалобами обращаться напрямую к пользователю. Файлы для обмена на трекере предоставлены пользователями сайта, и администрация не несёт ответственности за их содержание. Просьба не заливать файлы, защищенные авторскими правами, а также файлы нелегального содержания!


    _________________
    [Профиль] [ЛС]
    Показать сообщения:    
    Ответить на тему

    Текущее время: Сегодня, в 14:46

    Часовой пояс: GMT + 2



    Вы не можете начинать темы
    Вы не можете отвечать на сообщения
    Вы не можете редактировать свои сообщения
    Вы не можете удалять свои сообщения
    Вы не можете голосовать в опросах
    Вы не можете прикреплять файлы к сообщениям
    Вы не можете скачивать файлы