BitTorrentTracker PerecTracker.org
BitTorrentTracker PerecTracker.org
    
Регистрация  ·  Вход
 
 · 
Забыли пароль?

  • Прямой эфир с Борисом Корчевниковым. / Самолет-призрак найден. Загадка не разгадана (ВГТРК) [2013 г., Тв-шоу, AVC]

    Ответить на тему
     
    Автор Сообщение

    Columb

    Создавать темы 14-Май-2013 15:31

           

    [Цитировать]

    Прямой эфир с Борисом Корчевниковым. / Самолет-призрак найден. Загадка не разгадана-Год выпуска: 2013
    Страна: Россия
    Жанр: Тв-шоу
    Продолжительность: 00:38:10
    Перевод: Не требуется
    Субтитры: нет
    Режиссер: ВГТРК
    В ролях: Борис Корчевников
    Описание: Об этих проблемах пока не написано ни в печатных, ни в электронных СМИ. Но они существуют! Это реальные проблемы обычных людей, оказавшихся в сложных жизненных ситуациях. Это касается каждого! "Прямой эфир" - хроника нашей жизни.
    Новым ведущим программы Прямой эфир с 13 мая 2013 года будет Борис Корчевников. Михаил Зеленский возвращается в программу «Вести. Москва», ведущим которой он был ранее в течение 10 лет. Помимо нового ведущего, программа также получит новую современную студию, оборудованную по самой последней телевизионной моде. Обновленная программа выйдет в эфир 13 мая. Главный продюсер службы специальных линейных проектов телеканала «Россия 1? Наталья Никонова отметила, что программа «Прямой эфир» развивается и обновляется, и новый ведущий привнесёт в это ток-шоу свою авторскую интонацию. Михаил Зеленский начинал карьеру на ТВЦ и на «Радио России Ностальжи». В 1999 году стал ведущим программы «Вести» на телеканале «Россия». С 2006 года также ведущий телеканала «Россия 24». С апреля 2011 года — ведущий ток-шоу «Прямой эфир». Актер и тележурналист Борис Корчевников в 2003 году закончил факультет журналистики МГУ, одновременно он учился в Школе-студии МХАТ.
    Доп. информация: Эфир: 13.05.2013, Тема: Самолет-призрак найден. Загадка не разгадана.
    Релиз

    Рип чистый. Без посторонних надписей. Выкладывается как есть.
    Видео кодек:AVC
    Аудио кодек: AC3
    Видео: 1920x1080 (16:9) 25.000 fps 7 853 Kbps, 0.151 bit/pixel
    Аудио: MPEG Audio 48000Hz stereo 192 Кбит/сек

    Скриншоты




    MI

    General
    ID : 1 (0x1)
    Complete name : J:\ВЫКЛАДКА\HDTV\Документальные фильмы\Прямой эфир\Прямой эфир с Борисом Корчевниковым. Самолет-призрак найден. Загадка не разгадана (Эфир 13.05.2013) (2013, Тв-шоу, HDTV) (MYDIMKA).ts
    Format : MPEG-TS
    File size : 2.25 GiB
    Duration : 38mn 9s
    Overall bit rate mode : Variable
    Overall bit rate : 8 444 Kbps
    Video
    ID : 2911 (0xB5F)
    Menu ID : 1 (0x1)
    Format : AVC
    Format/Info : Advanced Video Codec
    Format profile : High@L4.0
    Format settings, CABAC : Yes
    Format settings, ReFrames : 3 frames
    Codec ID : 27
    Duration : 38mn 9s
    Bit rate : 7 833 Kbps
    Width : 1 920 pixels
    Height : 1 080 pixels
    Display aspect ratio : 16:9
    Frame rate : 25.000 fps
    Color space : YUV
    Chroma subsampling : 4:2:0
    Bit depth : 8 bits
    Scan type : MBAFF
    Bits/(Pixel*Frame) : 0.151
    Stream size : 2.09 GiB (93%)
    Audio
    ID : 2912 (0xB60)
    Menu ID : 1 (0x1)
    Format : MPEG Audio
    Format version : Version 1
    Format profile : Layer 2
    Mode : Joint stereo
    Mode extension : Intensity Stereo + MS Stereo
    Codec ID : 3
    Duration : 38mn 9s
    Bit rate mode : Constant
    Bit rate : 192 Kbps
    Channel(s) : 2 channels
    Sampling rate : 48.0 KHz
    Compression mode : Lossy
    Stream size : 52.4 MiB (2%)
    Language : Russian
    Скачать .torrent

    Скачать торрент-файл бесплатно и на максимальной скорости!

    Как скачивать? · Что такое торрент? · Рейтинг и ограничения

    !ВНИМАНИЕ!
    Сайт не распространяет и не хранит электронные версии произведений, а занимается лишь лишь предоставлением доступа к создаваемому пользователями каталогу ссылок на торрент-файлы, которые содержат только списки хеш-сумм, убедительная просьба с жалобами обращаться напрямую к пользователю. Файлы для обмена на трекере предоставлены пользователями сайта, и администрация не несёт ответственности за их содержание. Просьба не заливать файлы, защищенные авторскими правами, а также файлы нелегального содержания!

    [Профиль] [ЛС]
    Показать сообщения:    
    Ответить на тему

    Текущее время: Сегодня, в 02:24

    Часовой пояс: GMT + 2



    Вы не можете начинать темы
    Вы не можете отвечать на сообщения
    Вы не можете редактировать свои сообщения
    Вы не можете удалять свои сообщения
    Вы не можете голосовать в опросах
    Вы не можете прикреплять файлы к сообщениям
    Вы не можете скачивать файлы