BitTorrentTracker PerecTracker.org
BitTorrentTracker PerecTracker.org
    
Регистрация  ·  Вход
 
 · 
Забыли пароль?

  • Теория самоубийства / The Suicide Theory (Дрю Браун / Dru Brown) [2014, Австралия, Криминал, драма, WEB-DL] DVO + Original Eng

    Ответить на тему
     
    Автор Сообщение

    Light

    Создавать темы 21-Июл-2015 07:29

           

    [Цитировать]

    Теория самоубийства / The Suicide Theory
    Страна: Австралия
    Жанр: Криминал, драма
    Год выпуска: 2014
    Продолжительность: 01:36:07
    Перевод: Любительский (двухголосый закадровый) datynet & Галина Васюкова; Перевод: Куценко
    Cубтитры: нет
    Оригинальная аудиодорожка: английский
    Режиссер: Дрю Браун / Dru Brown
    В ролях: Стив Музакис, Леон Кэйн, Джосс МакУильям, Мэттью Скалли, Тодд Леви, Николас Купер, Уорвик Комбер, Эрин Коннор, Крис Бартоломью, Рон Келли
    Описание: Человек, решившийся на самоубийство нанимает безумного убийцу, чтобы он помог ему выполнить свой план, но по какой-то причине он выживает каждый раз, когда решается посягнуть на свою собственную жизнь.
    Сэмпл:http://sendfile.su/1138277
    Качество видео: WEB-DL
    Формат видео: AVI
    Видео: Xvid, 720x304, 24fps, 1738kbps
    Аудио:Dolby AC3, 44100Hz, stereo, 192kbps
    Аудио 2: Dolby AC3, 48000Hz, stereo, 224kbps

    MediaInfo

    General
    Complete name : G:\The.Suicide.Theory.2014.L2.WEB-DLRip.avi
    Format : AVI
    Format/Info : Audio Video Interleave
    File size : 1.46 GiB
    Duration : 1h 36mn
    Overall bit rate : 2 169 Kbps
    Writing application : VirtualDubMod 1.5.10.3 | www.virtualdub-fr.org || (build 2550/release)
    Writing library : VirtualDubMod build 2550/release
    Video
    ID : 0
    Format : MPEG-4 Visual
    Format profile : Advanced Simple@L5
    Format settings, BVOP : 1
    Format settings, QPel : No
    Format settings, GMC : No warppoints
    Format settings, Matrix : Custom
    Codec ID : XVID
    Codec ID/Hint : XviD
    Duration : 1h 36mn
    Bit rate : 1 739 Kbps
    Width : 720 pixels
    Height : 304 pixels
    Display aspect ratio : 2.35:1
    Frame rate : 24.000 fps
    Color space : YUV
    Chroma subsampling : 4:2:0
    Bit depth : 8 bits
    Scan type : Progressive
    Compression mode : Lossy
    Bits/(Pixel*Frame) : 0.331
    Stream size : 1.17 GiB (80%)
    Writing library : XviD 73
    Audio #1
    ID : 1
    Format : AC-3
    Format/Info : Audio Coding 3
    Mode extension : CM (complete main)
    Format settings, Endianness : Big
    Codec ID : 2000
    Duration : 1h 36mn
    Bit rate mode : Constant
    Bit rate : 192 Kbps
    Channel(s) : 2 channels
    Channel positions : Front: L R
    Sampling rate : 44.1 KHz
    Bit depth : 16 bits
    Compression mode : Lossy
    Stream size : 132 MiB (9%)
    Alignment : Split accross interleaves
    Interleave, duration : 42 ms (1.00 video frame)
    Interleave, preload duration : 500 ms
    Audio #2
    ID : 2
    Format : AC-3
    Format/Info : Audio Coding 3
    Mode extension : CM (complete main)
    Format settings, Endianness : Big
    Codec ID : 2000
    Duration : 1h 36mn
    Bit rate mode : Constant
    Bit rate : 224 Kbps
    Channel(s) : 2 channels
    Channel positions : Front: L R
    Sampling rate : 48.0 KHz
    Bit depth : 16 bits
    Compression mode : Lossy
    Stream size : 154 MiB (10%)
    Alignment : Split accross interleaves
    Interleave, duration : 42 ms (1.00 video frame)
    Interleave, preload duration : 500 ms

    Скриншоты










    Скачать .torrent

    Скачать торрент-файл бесплатно и на максимальной скорости!

    Как скачивать? · Что такое торрент? · Рейтинг и ограничения

    !ВНИМАНИЕ!
    Сайт не распространяет и не хранит электронные версии произведений, а занимается лишь лишь предоставлением доступа к создаваемому пользователями каталогу ссылок на торрент-файлы, которые содержат только списки хеш-сумм, убедительная просьба с жалобами обращаться напрямую к пользователю. Файлы для обмена на трекере предоставлены пользователями сайта, и администрация не несёт ответственности за их содержание. Просьба не заливать файлы, защищенные авторскими правами, а также файлы нелегального содержания!


    _________________
    [Профиль] [ЛС]
    Показать сообщения:    
    Ответить на тему

    Текущее время: Сегодня, в 16:10

    Часовой пояс: GMT + 2



    Вы не можете начинать темы
    Вы не можете отвечать на сообщения
    Вы не можете редактировать свои сообщения
    Вы не можете удалять свои сообщения
    Вы не можете голосовать в опросах
    Вы не можете прикреплять файлы к сообщениям
    Вы не можете скачивать файлы