BitTorrentTracker PerecTracker.org
BitTorrentTracker PerecTracker.org
    
Регистрация  ·  Вход
 
 · 
Забыли пароль?

  • Толстяк против всех / Paul Blart: Mall Cop 2 (Энди Фикмен / Andy Fickman ) [2015, США, Комедия, боевик, BDRip, HD (720p)] MVO + Original + sub (rus, eng)

    Ответить на тему
     
    Автор Сообщение

    rechyn

    Создавать темы 20-Июл-2015 18:53

           

    [Цитировать]

    Толстяк против всех / Paul Blart: Mall Cop 2
    «Vegas has a new high roller»
    4.685 / 10 4.30 / 10
    -Год выпуска: 2015
    Страна: США
    Жанр: Комедия, боевик
    Продолжительность: 01:34:00
    Перевод: Многоголосый закадровый (iTunes)
    Оригинальная аудиодорожка: Есть
    Cубтитры: Русские, Английские
    Режиссёр: Энди Фикмен
    Сценарий: Кевин Джеймс, Ник Бакай
    Продюсер: Тодд Гарнер, Джек Джиррапуто, Кевин Джеймс
    Оператор: Дин Семлер
    Композитор: Руперт Грегсон-Уильямс
    Художник: Перри Энделин Блейк, Алан Ау, Женевьева Тиррелл
    Монтаж: Скотт Хилл
    В ролях: Кевин Джеймс, Рейни Родригес, Нил МакДонаф, Даниэлла Алонсо, Эдуардо Верастеги, Дэвид Генри, Ширли Найт, Гари Валентайн, Ана Гастейер, Николас Туртурро
    Бюджет: $30 000 000
    Сборы в США: $70 607 328
    Сборы в мире: + $33 100 000 = $103 707 328
    Мировая премьера: 9 апреля 2015
    Релиз на DVD: 20 августа 2015, «CP Дистрибуция»
    Описание: Охранник Пол отправляется в Лас-Вегас, чтобы посетить посвященную охране выставку вместе со своей дочерью Майей, прежде чем она уедет в колледж. На выставке Пол случайно узнает об ограблении и решает задержать преступников…-Качество исходника: BDRemux (HDClub)
    Качество: BDRip
    Тип: HD (720p)
    Контейнер: M4V
    Видео: H.264, 1280x688, 1.85:1, 3 500 Kbps, 23.976 fps
    Аудио 1: Русский/Многоголосый закадровый (iTunes), AAC / 2.0 / 156 Kbps / 48.0 KHz
    Аудио 2: Английский/Оригинальная дорожка , AAC / 2.0 / 156 Kbps / 48.0 KHz
    Аудио 3: Украинский/Многоголосый закадровый (iTunes), AAC / 2.0 / 157 Kbps / 48.0 KHz
    Аудио 4: Русский/Многоголосый закадровый (iTunes), AC-3 / 5.1 / 384 Kbps / 48.0 KHz
    Аудио 5: Английский/Оригинальная дорожка , AC-3 / 5.1 / 640 Kbps / 48.0 KHz
    Субтитры 1: Русские полные
    Субтитры 2: Английские полные
    -

    iTunes Meta Tags

    Sort Name: Paul Blart: Mall Cop 2
    XID: Apple:vendor_id:2015-819054
    contentID: 978515291
    Screenwriters: Кевин Джеймс, Ник Бакай
    Producers: Тодд Гарнер, Джек Джиррапуто, Кевин Джеймс
    Director: Энди Фикмен
    Cast: Кевин Джеймс, Рейни Родригес, Эдуардо Верастеги, Даниэлла Алонсо, Нил МакДонаф, Дэвид Генри, Д.Б. Вудсайд, Николас Туртурро, Лони Лав, Гари Валентайн
    Studio: Happy Madison Productions
    Rating: 9
    Long Description: Охранник Пол отправляется в Лас-Вегас, чтобы посетить посвященную охране выставку вместе со своей дочерью Майей, прежде чем она уедет в колледж. На выставке Пол случайно узнает об ограблении и решает задержать преступников...
    Description: Охранник Пол отправляется в Лас-Вегас, чтобы посетить посвященную охране выставку вместе со своей дочерью Майей, прежде чем она уедет в колледж. На выставке Пол случайно узнает об ограблении и решает задержать преступников...
    Release Date: 2015-04-09T08:00:00Z
    Genre: Comedy
    Artist: Andy Fickman
    Name: Paul Blart: Mall Cop 2

    MediaInfo

    General
    Complete name                            : /Users/imac/HandBrake/Paul Blart- Mall Cop 2 (720p HD).m4v
    Format                                   : MPEG-4
    Codec ID                                 : M4V
    File size                                : 3.28 GiB
    Duration                                 : 1h 34mn
    Overall bit rate mode                    : Variable
    Overall bit rate                         : 4 997 Kbps
    Movie name                               : Paul Blart: Mall Cop 2
    Performer                                : Andy Fickman
    Genre                                    : Comedy
    Recorded date                            : UTC 2015-04-09 08:00:00
    Encoded date                             : UTC 2015-07-20 13:34:23
    Tagged date                              : UTC 2015-07-20 13:39:24
    Cover                                    : Yes
    sonm                                     : Paul Blart: Mall Cop 2
    desc                                     : Охранник Пол отправляется в Лас-Вегас, чтобы посетить посвященную охране выставку вместе со своей дочерью Майей, прежде чем она уедет в колледж. На выставке Пол случайно узнает об ограблении и решает задержать преступников...
    ldes                                     : Охранник Пол отправляется в Лас-Вегас, чтобы посетить посвященную охране выставку вместе со своей дочерью Майей, прежде чем она уедет в колледж. На выставке Пол случайно узнает об ограблении и решает задержать преступников...
    hdvd                                     : 1
    stik                                     : 9
    rtng                                     : 0
    cnID                                     : 978515291
    xid                                      : Apple:vendor_id:2015-819054
    iTunEXTC                                 : mpaa|PG|200|
    iTunMOVI                                 : <?xml version=\"1.0\" encoding=\"UTF-8\"?> / <!DOCTYPE plist PUBLIC \"-//Apple//DTD PLIST 1.0//EN\" \"http://anonym.to/?http://www.apple.com/DTDs/PropertyList-1.0.dtd\"> / <plist version=\"1.0\"> / <dict> /  <key>cast</key> /  <array> /   <dict> /    <key>name</key> /    <string>Кевин Джеймс</string> /   </dict> /   <dict> /    <key>name</key> /    <string>Рейни Родригес</string> /   </dict> /   <dict> /    <key>name</key> /    <string>Эдуардо Верастеги</string> /   </dict> /   <dict> /    <key>name</key> /    <string>Даниэлла Алонсо</string> /   </dict> /   <dict> /    <key>name</key> /    <string>Нил МакДонаф</string> /   </dict> /   <dict> /    <key>name</key> /    <string>Дэвид Генри</string> /   </dict> /   <dict> /    <key>name</key> /    <string>Д.Б. Вудсайд</string> /   </dict> /   <dict> /    <key>name</key> /    <string>Николас Туртурро</string> /   </dict> /   <dict> /    <key>name</key> /    <string>Лони Лав</string> /   </dict> /   <dict> /    <key>name</key> /    <string>Гари Валентайн</string> /   </dict> /  </array> /  <key>directors</key> /  <array> /   <dict> /    <key>name</key> /    <string>Энди Фикмен</string> /   </dict> /  </array> /  <key>producers</key> /  <array> /   <dict> /    <key>name</key> /    <string>Тодд Гарнер</string> /   </dict> /   <dict> /    <key>name</key> /    <string>Джек Джиррапуто</string> /   </dict> /   <dict> /    <key>name</key> /    <string>Кевин Джеймс</string> /   </dict> /  </array> /  <key>screenwriters</key> /  <array> /   <dict> /    <key>name</key> /    <string>Кевин Джеймс</string> /   </dict> /   <dict> /    <key>name</key> /    <string>Ник Бакай</string> /   </dict> /  </array> /  <key>studio</key> /  <string>Happy Madison Productions</string> / </dict> / </plist>
    Video #1
    ID                                       : 1
    Format                                   : AVC
    Format/Info                              : Advanced Video Codec
    Format profile                           : High@L3.1
    Format settings, CABAC                   : No
    Format settings, ReFrames                : 3 frames
    Codec ID                                 : avc1
    Codec ID/Info                            : Advanced Video Coding
    Duration                                 : 1h 34mn
    Bit rate mode                            : Variable
    Bit rate                                 : 3 500 Kbps
    Width                                    : 1 280 pixels
    Height                                   : 688 pixels
    Display aspect ratio                     : 1.85:1
    Frame rate mode                          : Variable
    Frame rate                               : 23.976 fps
    Minimum frame rate                       : 23.974 fps
    Maximum frame rate                       : 23.981 fps
    Color space                              : YUV
    Chroma subsampling                       : 4:2:0
    Bit depth                                : 8 bits
    Scan type                                : Progressive
    Bits/(Pixel*Frame)                       : 0.166
    Stream size                              : 2.29 GiB (70%)
    Writing library                          : x264 core 142 r2479 dd79a61
    Encoding settings                        : cabac=0 / ref=3 / deblock=1:-3:-3 / analyse=0x3:0x113 / me=umh / subme=9 / psy=1 / psy_rd=1.00:0.15 / mixed_ref=1 / me_range=32 / chroma_me=1 / trellis=0 / 8x8dct=1 / cqm=0 / deadzone=21,11 / fast_pskip=0 / chroma_qp_offset=-2 / threads=36 / lookahead_threads=3 / sliced_threads=0 / nr=0 / decimate=0 / interlaced=0 / bluray_compat=0 / constrained_intra=0 / bframes=3 / b_pyramid=0 / b_adapt=2 / b_bias=0 / direct=1 / weightb=0 / open_gop=0 / weightp=0 / keyint=240 / keyint_min=24 / scenecut=40 / intra_refresh=0 / rc_lookahead=40 / rc=2pass / mbtree=1 / bitrate=3500 / ratetol=1.0 / qcomp=0.65 / qpmin=0 / qpmax=69 / qpstep=4 / cplxblur=20.0 / qblur=0.5 / vbv_maxrate=9500 / vbv_bufsize=9500 / nal_hrd=none / filler=0 / ip_ratio=1.40 / aq=1:1.10
    Language                                 : English
    Encoded date                             : UTC 2015-07-20 13:34:23
    Tagged date                              : UTC 2015-07-20 13:34:28
    Color primaries                          : BT.709-5, BT.1361, IEC 61966-2-4, SMPTE RP177
    Transfer characteristics                 : BT.709-5, BT.1361
    Matrix coefficients                      : BT.709-5, BT.1361, IEC 61966-2-4 709, SMPTE RP177
    Video #2
    ID                                       : 10
    Format                                   : JPEG
    Codec ID                                 : jpeg
    Duration                                 : 1h 34mn
    Bit rate mode                            : Variable
    Bit rate                                 : 1 332 bps
    Width                                    : 640 pixels
    Height                                   : 344 pixels
    Display aspect ratio                     : 1.85:1
    Frame rate mode                          : Variable
    Frame rate                               : 0.003 fps
    Minimum frame rate                       : 0.002 fps
    Maximum frame rate                       : 0.005 fps
    Color space                              : YUV
    Chroma subsampling                       : 4:2:0
    Bit depth                                : 8 bits
    Compression mode                         : Lossy
    Bits/(Pixel*Frame)                       : 2.017
    Stream size                              : 867 KiB (0%)
    Language                                 : English
    Encoded date                             : UTC 2015-07-20 13:38:48
    Tagged date                              : UTC 2015-07-20 13:38:48
    Audio #1
    ID                                       : 2
    Format                                   : AAC
    Format/Info                              : Advanced Audio Codec
    Format profile                           : LC
    Codec ID                                 : 40
    Duration                                 : 1h 34mn
    Bit rate mode                            : Variable
    Bit rate                                 : 156 Kbps
    Maximum bit rate                         : 271 Kbps
    Channel(s)                               : 2 channels
    Channel positions                        : Front: L R
    Sampling rate                            : 48.0 KHz
    Compression mode                         : Lossy
    Stream size                              : 105 MiB (3%)
    Language                                 : Russian
    Encoded date                             : UTC 2015-07-20 13:34:23
    Tagged date                              : UTC 2015-07-20 13:34:32
    Audio #2
    ID                                       : 3
    Format                                   : AAC
    Format/Info                              : Advanced Audio Codec
    Format profile                           : LC
    Codec ID                                 : 40
    Duration                                 : 1h 34mn
    Bit rate mode                            : Variable
    Bit rate                                 : 156 Kbps
    Maximum bit rate                         : 283 Kbps
    Channel(s)                               : 2 channels
    Channel positions                        : Front: L R
    Sampling rate                            : 48.0 KHz
    Compression mode                         : Lossy
    Stream size                              : 105 MiB (3%)
    Language                                 : English
    Encoded date                             : UTC 2015-07-20 13:34:23
    Tagged date                              : UTC 2015-07-20 13:34:32
    Audio #3
    ID                                       : 4
    Format                                   : AAC
    Format/Info                              : Advanced Audio Codec
    Format profile                           : LC
    Codec ID                                 : 40
    Duration                                 : 1h 34mn
    Bit rate mode                            : Variable
    Bit rate                                 : 157 Kbps
    Maximum bit rate                         : 283 Kbps
    Channel(s)                               : 2 channels
    Channel positions                        : Front: L R
    Sampling rate                            : 48.0 KHz
    Compression mode                         : Lossy
    Stream size                              : 106 MiB (3%)
    Language                                 : Ukrainian
    Encoded date                             : UTC 2015-07-20 13:34:23
    Tagged date                              : UTC 2015-07-20 13:34:32
    Audio #4
    ID                                       : 5
    Format                                   : AC-3
    Format/Info                              : Audio Coding 3
    Mode extension                           : CM (complete main)
    Format settings, Endianness              : Big
    Codec ID                                 : ac-3
    Duration                                 : 1h 34mn
    Bit rate mode                            : Constant
    Bit rate                                 : 384 Kbps
    Channel(s)                               : 6 channels
    Channel positions                        : Front: L C R, Side: L R, LFE
    Sampling rate                            : 48.0 KHz
    Bit depth                                : 16 bits
    Compression mode                         : Lossy
    Stream size                              : 258 MiB (8%)
    Language                                 : Russian
    Encoded date                             : UTC 2015-07-20 13:34:23
    Tagged date                              : UTC 2015-07-20 13:34:30
    Audio #5
    ID                                       : 6
    Format                                   : AC-3
    Format/Info                              : Audio Coding 3
    Mode extension                           : CM (complete main)
    Format settings, Endianness              : Big
    Codec ID                                 : ac-3
    Duration                                 : 1h 34mn
    Bit rate mode                            : Constant
    Bit rate                                 : 640 Kbps
    Channel(s)                               : 6 channels
    Channel positions                        : Front: L C R, Side: L R, LFE
    Sampling rate                            : 48.0 KHz
    Bit depth                                : 16 bits
    Compression mode                         : Lossy
    Stream size                              : 430 MiB (13%)
    Language                                 : English
    Encoded date                             : UTC 2015-07-20 13:38:41
    Tagged date                              : UTC 2015-07-20 13:38:44
    Text #1
    ID                                       : 7
    Format                                   : Timed text
    Muxing mode                              : sbtl
    Codec ID                                 : tx3g
    Duration                                 : 1h 29mn
    Bit rate mode                            : Variable
    Bit rate                                 : 114 bps
    Stream size                              : 74.5 KiB (0%)
    Language                                 : Russian
    Encoded date                             : UTC 2015-07-20 13:38:41
    Tagged date                              : UTC 2015-07-20 13:38:41
    Text #2
    ID                                       : 8
    Format                                   : Timed text
    Muxing mode                              : sbtl
    Codec ID                                 : tx3g
    Duration                                 : 1h 29mn
    Bit rate mode                            : Variable
    Bit rate                                 : 75 bps
    Stream size                              : 48.9 KiB (0%)
    Language                                 : English
    Encoded date                             : UTC 2015-07-20 13:38:41
    Tagged date                              : UTC 2015-07-20 13:38:41
    Text #3
    ID                                       : 9
    Format                                   : Apple text
    Codec ID                                 : text
    Duration                                 : 1h 34mn
    Bit rate mode                            : Variable
    Bit rate                                 : 1 bps
    Stream size                              : 375 Bytes (0%)
    Language                                 : English
    Encoded date                             : UTC 2015-07-20 13:38:44
    Tagged date                              : UTC 2015-07-20 13:38:44
    Menu
    00:00:00.000                             : Chapter 1
    00:04:21.803                             : Chapter 2
    00:14:20.193                             : Chapter 3
    00:20:36.861                             : Chapter 4
    00:25:51.049                             : Chapter 5
    00:32:20.939                             : Chapter 6
    00:36:45.620                             : Chapter 7
    00:39:56.519                             : Chapter 8
    00:47:54.413                             : Chapter 9
    00:53:26.495                             : Chapter 10
    00:59:11.798                             : Chapter 11
    01:06:07.505                             : Chapter 12
    01:12:24.131                             : Chapter 13
    01:19:40.109                             : Chapter 14
    01:23:42.893                             : Chapter 15
    01:27:23.655                             : Chapter 16

    x264 лог

    x264 [info]: frame I:1929  Avg QP:17.30  size:116775
    x264 [info]: frame P:57984 Avg QP:19.47  size: 29961
    x264 [info]: frame B:75327 Avg QP:21.93  size:  6652
    x264 [info]: consecutive B-frames:  5.2% 57.6% 12.4% 24.8%
    x264 [info]: mb I  I16..4:  9.7% 50.2% 40.2%
    x264 [info]: mb P  I16..4:  2.1%  3.9%  2.0%  P16..4: 52.7% 21.0%  9.9%  0.0%  0.0%    skip: 8.4%
    x264 [info]: mb B  I16..4:  0.1%  0.5%  0.3%  B16..8: 40.8%  6.4%  1.0%  direct: 2.8%  skip:48.1%  L0:36.0% L1:55.8% BI: 8.2%
    x264 [info]: 8x8 transform intra:49.5% inter:46.7%
    x264 [info]: coded y,uvDC,uvAC intra: 72.6% 84.7% 66.8% inter: 17.9% 26.8% 17.8%
    x264 [info]: i16 v,h,dc,p: 53% 13%  6% 28%
    x264 [info]: i8 v,h,dc,ddl,ddr,vr,hd,vl,hu: 10%  8%  4% 11% 15% 15% 14% 12% 11%
    x264 [info]: i4 v,h,dc,ddl,ddr,vr,hd,vl,hu: 11% 10%  3% 11% 16% 15% 14% 10%  9%
    x264 [info]: i8c dc,h,v,p: 50% 17% 20% 13%
    x264 [info]: ref P L0: 75.7% 14.4%  9.9%
    x264 [info]: ref B L0: 84.0% 16.0%
    x264 [info]: kb/s:3494.01

    Скриншоты

    -

    Релиз подготовлен для просмотра на Apple TV, iPad, iPhone, iPod Touch.
    Для просмотра данного релиза на компьютере с ОС Windows рекомендуется использовать VLC media player
    Скачать .torrent

    Скачать торрент-файл бесплатно и на максимальной скорости!

    Как скачивать? · Что такое торрент? · Рейтинг и ограничения

    !ВНИМАНИЕ!
    Сайт не распространяет и не хранит электронные версии произведений, а занимается лишь лишь предоставлением доступа к создаваемому пользователями каталогу ссылок на торрент-файлы, которые содержат только списки хеш-сумм, убедительная просьба с жалобами обращаться напрямую к пользователю. Файлы для обмена на трекере предоставлены пользователями сайта, и администрация не несёт ответственности за их содержание. Просьба не заливать файлы, защищенные авторскими правами, а также файлы нелегального содержания!


    _________________
    [Профиль] [ЛС]
    Показать сообщения:    
    Ответить на тему

    Текущее время: Сегодня, в 07:08

    Часовой пояс: GMT + 2



    Вы не можете начинать темы
    Вы не можете отвечать на сообщения
    Вы не можете редактировать свои сообщения
    Вы не можете удалять свои сообщения
    Вы не можете голосовать в опросах
    Вы не можете прикреплять файлы к сообщениям
    Вы не можете скачивать файлы