BitTorrentTracker PerecTracker.org
BitTorrentTracker PerecTracker.org
    
Регистрация  ·  Вход
 
 · 
Забыли пароль?

  • Тайна двухколесного экипажа / Тайна двуколки / The Mystery of a Hansom Cab (Шон Сит / Shawn Seet) [2012, Австралия, детектив, экранизация, DVDRip] VO (Project Web Money)

    Ответить на тему
     
    Автор Сообщение

    Light

    Создавать темы 20-Июл-2015 18:53

           

    [Цитировать]

    Тайна двухколесного экипажа / Тайна двуколки / The Mystery of a Hansom Cab
    Страна: Австралия
    Жанр: детектив, экранизация
    Год выпуска: 2012
    Продолжительность: 01:40:37
    Перевод: Одноголосый закадровый Project_Web_Money по переводу smip2010
    Cубтитры: нет
    Оригинальная аудиодорожка: нет
    Режиссер: Шон Сит / Shawn Seet
    В ролях: Джон Уотерс, Марко Киаппи, Бретт Климо, Шэйн Джейкобсон, Джессика Де Гау, Оливер Экланд, Челси Престон-Крейфорд, Феликс Уильямсон, Чарли Казинс, Нэйтан Лавджой, Джерри Коннолли, Хелен Морс, Анна МакГахэн, Майкл Карман, Кэрри Уолкер, Брайан Липсон, Питер Стрэтфорд, Тони Рикардс, Ричард Аспел, Рэймонд Томас, Касия Качмарек, Флер Дин, Мик О’Мэлли, Кален МакКензи, Джеффри Ричардс, Сейшелл, Ричард Девайн
    Описание: Мельбурн, 1886 год. Эта детективная история начинается с того, как нетрезвый мужчина садится в двуколку и оказывается мёртвым по его прибытии. Кто загадочный убийца и каков был его мотив: ревность, шантаж, семейные тайны или всё-таки любовь? Кто сможет найти истину, открывая бесконечные и подчас страшные секреты по пути...
    Первый и, пожалуй, наиболее известный роман Фергюса Хьюма.
    Доп. информация: Спасибо smip2010 за более, чем литературный перевод и dimmm2v за рип!!!
    Сэмпл: http://multi-up.com/1059179
    Качество видео: DVDRip
    Формат видео: AVI
    Видео: 640x352 (1.82:1), 23.976 fps, XviD build 64 ~824 kbps avg, 0.15 bit/pixel
    Аудио: AC3, 192 Kbps, 48.0 KHz, 2 channels VO Project_Web_Money

    MediaInfo

    Тайна_двуколки_VO_Project_Web_Money.avi
    Формат : AVI
    Формат/Информация : Audio Video Interleave
    Размер файла : 738 Мбайт
    Продолжительность : 1 ч. 40 м.
    Общий поток : 1026 Кбит/сек
    Программа кодирования : VirtualDubModRus 1.5.10.2 (build 2542/release)
    Библиотека кодирования : VirtualDubMod build 2542/release
    Видео
    Идентификатор : 0
    Формат : MPEG-4 Visual
    Профиль формата : Advanced Simple@L5
    Параметр BVOP формата : 1
    Параметр QPel формата : Нет
    Параметр GMC формата : Без точки перехода
    Параметр матрицы формата : Default (H.263)
    Идентификатор кодека : XVID
    Идентификатор кодека/Подсказка : XviD
    Продолжительность : 1 ч. 40 м.
    Битрейт : 824 Кбит/сек
    Ширина : 640 пикс.
    Высота : 352 пикс.
    Соотношение сторон : 16:9
    Частота кадров : 23,976 кадр/сек
    Цветовое пространство : YUV
    Подвыборка цветности : 4:2:0
    Битовая глубина : 8 бит
    Тип развёртки : Прогрессивная
    Метод сжатия : С потерями
    Бит/(Пиксели*Кадры) : 0.153
    Размер потока : 593 Мбайт (80%)
    Библиотека кодирования : XviD 64
    Аудио
    Идентификатор : 1
    Формат : AC-3
    Формат/Информация : Audio Coding 3
    Расширение режима : CM (complete main)
    Идентификатор кодека : 2000
    Продолжительность : 1 ч. 40 м.
    Вид битрейта : Постоянный
    Битрейт : 192 Кбит/сек
    Каналы : 2 канала
    Расположение каналов : Front: L R
    Частота : 48,0 КГц
    Битовая глубина : 16 бит
    Метод сжатия : С потерями
    Размер потока : 138 Мбайт (19%)
    Выравнивание : Разделение по промежуткам
    Продолжительность промежутка : 42 мс. (1,00 видеокадр)
    Время предзагрузки промежутка : 500 ms

    Скриншот c названием фильма

    Скриншоты

    Скачать .torrent

    Скачать торрент-файл бесплатно и на максимальной скорости!

    Как скачивать? · Что такое торрент? · Рейтинг и ограничения

    !ВНИМАНИЕ!
    Сайт не распространяет и не хранит электронные версии произведений, а занимается лишь лишь предоставлением доступа к создаваемому пользователями каталогу ссылок на торрент-файлы, которые содержат только списки хеш-сумм, убедительная просьба с жалобами обращаться напрямую к пользователю. Файлы для обмена на трекере предоставлены пользователями сайта, и администрация не несёт ответственности за их содержание. Просьба не заливать файлы, защищенные авторскими правами, а также файлы нелегального содержания!


    _________________
    [Профиль] [ЛС]
    Показать сообщения:    
    Ответить на тему

    Текущее время: Сегодня, в 04:04

    Часовой пояс: GMT + 2



    Вы не можете начинать темы
    Вы не можете отвечать на сообщения
    Вы не можете редактировать свои сообщения
    Вы не можете удалять свои сообщения
    Вы не можете голосовать в опросах
    Вы не можете прикреплять файлы к сообщениям
    Вы не можете скачивать файлы