BitTorrentTracker PerecTracker.org
BitTorrentTracker PerecTracker.org
    
Регистрация  ·  Вход
 
 · 
Забыли пароль?

  • Все включено / Датчанки на Мальте / All inclusive (Хелла Йооф / Hella Joof) [2014, Дания, комедия, мелодрама, HDRip-AVC] VO (Vaxywod)

    Ответить на тему
     
    Автор Сообщение

    Light

    Создавать темы 20-Июл-2015 18:53

           

    [Цитировать]

    Все включено / Датчанки на Мальте / All inclusive
    Страна: Дания
    Жанр: комедия, мелодрама
    Год выпуска: 2014
    Продолжительность: 01:29:32
    Перевод: Одноголосый закадровый Vaxywod (по оригинальным субтитрам М. Васильева)
    Cубтитры: нет
    Режиссер: Хелла Йооф / Hella Joof
    В ролях: Даница Чурчич, Мария Россинг, Бодиль Ергенсон, Диого Инфанте, Карстен Бьорнлунн
    Описание: Главная героиня решает отметить свое 60-летие поездкой на Мальту. Компанию ей составляют две дочери, которые давно уже не общаются и ненавидят друг друга. Одна из них — серьезная женщина и мать троих детей, другая — упорно не желающая взрослеть рокерша, ведущая альтернативный образ жизни... Во время средиземноморского турне участницы этого забавного трио будут переживать романтические приключения и выяснять отношения друг с другом...

    Доп. информация: Фильм полностью снят на Мальте, в картине с избытком присутствует знаменитый немного странный датский юмор и свойственная этой нации меланхолия, без которой датчане прожить не могут. Веселое и грустное идут здесь рука об руку. Сцена, которая только что смешила зрителя, вдруг начинает выжимать слезу.
    Номинации на премию Датской Киноакадемии в категориях "лучший фильм", "лучшая женская роль", "лучший сценарий".
    Премия Датской Ассоциации Кинокритиков в категории "лучшая женская роль" (Бодиль Ергенсон за роль мамы)
    Исходник релиза: http://perectracker.org/viewtopic.php?t=5025148
    Сэмпл: http://sendfile.su/1138826
    Качество видео: HDRip-AVC
    Формат видео: MKV
    Видео: AVC, 1152 х 482 (16:9), 24.000 fps, 2200 Kbps
    Аудио: Dolby AC3, 48000Hz, stereo, 192kbps

    MediaInfo

    D:\Датчанки на Мальте\ДатчанкиНаМальте.mkv
    General
    Unique ID : 186099949010439062283740069755597964461 (0x8C018BE3CEAE3334BD7B79C8E8B944AD)
    Complete name : D:\Датчанки на Мальте\ДатчанкиНаМальте.mkv
    Format : Matroska
    File size : 1.49 GiB
    Duration : 1h 29mn
    Overall bit rate : 2 385 Kbps
    Encoded date : UTC 2015-07-20 11:27:26
    Writing application : mkvmerge v5.7.0 ('The Whirlwind') built on Jul 10 2012 18:39:26
    Writing library : libebml v1.2.3 + libmatroska v1.3.0
    Video #1
    ID : 1
    Format : AVC
    Format/Info : Advanced Video Codec
    Format profile : High@L4.1
    Format settings, CABAC : Yes
    Format settings, ReFrames : 9 frames
    Codec ID : V_MPEG4/ISO/AVC
    Duration : 1h 29mn
    Bit rate : 2 200 Kbps
    Width : 1 152 pixels
    Height : 482 pixels
    Display aspect ratio : 2.40:1
    Frame rate : 24.000 fps
    Color space : YUV
    Chroma subsampling : 4:2:0
    Bit depth : 8 bits
    Scan type : Progressive
    Bits/(Pixel*Frame) : 0.165
    Stream size : 1.34 GiB (90%)
    Writing library : x264 core 142 r2495 6a301b6
    Encoding settings : cabac=1 / ref=9 / deblock=1:-3:-3 / analyse=0x3:0x133 / me=umh / subme=9 / psy=1 / psy_rd=1,00:0,00 / mixed_ref=1 / me_range=24 / chroma_me=1 / trellis=2 / 8x8dct=1 / cqm=0 / deadzone=21,11 / fast_pskip=0 / chroma_qp_offset=-2 / threads=6 / lookahead_threads=1 / sliced_threads=0 / nr=0 / decimate=1 / interlaced=0 / bluray_compat=0 / constrained_intra=0 / bframes=6 / b_pyramid=2 / b_adapt=2 / b_bias=0 / direct=3 / weightb=1 / open_gop=0 / weightp=2 / keyint=240 / keyint_min=24 / scenecut=40 / intra_refresh=0 / rc_lookahead=60 / rc=abr / mbtree=1 / bitrate=2200 / ratetol=1,0 / qcomp=0,00 / qpmin=0 / qpmax=69 / qpstep=4 / vbv_maxrate=62500 / vbv_bufsize=78125 / nal_hrd=none / filler=0 / ip_ratio=1,40 / aq=2:1,00
    Color primaries : BT.709-5, BT.1361, IEC 61966-2-4, SMPTE RP177
    Transfer characteristics : BT.709-5, BT.1361
    Matrix coefficients : BT.709-5, BT.1361, IEC 61966-2-4 709, SMPTE RP177
    Audio #2
    ID : 2
    Format : AC-3
    Format/Info : Audio Coding 3
    Mode extension : CM (complete main)
    Codec ID : A_AC3
    Duration : 1h 29mn
    Bit rate mode : Constant
    Bit rate : 192 Kbps
    Channel(s) : 2 channels
    Channel positions : Front: L R
    Sampling rate : 48.0 KHz
    Bit depth : 16 bits
    Compression mode : Lossy
    Stream size : 123 MiB (8%)

    Скриншот c названием фильма

    Скриншоты





    Скачать .torrent

    Скачать торрент-файл бесплатно и на максимальной скорости!

    Как скачивать? · Что такое торрент? · Рейтинг и ограничения

    !ВНИМАНИЕ!
    Сайт не распространяет и не хранит электронные версии произведений, а занимается лишь лишь предоставлением доступа к создаваемому пользователями каталогу ссылок на торрент-файлы, которые содержат только списки хеш-сумм, убедительная просьба с жалобами обращаться напрямую к пользователю. Файлы для обмена на трекере предоставлены пользователями сайта, и администрация не несёт ответственности за их содержание. Просьба не заливать файлы, защищенные авторскими правами, а также файлы нелегального содержания!


    _________________
    [Профиль] [ЛС]
    Показать сообщения:    
    Ответить на тему

    Текущее время: Сегодня, в 18:14

    Часовой пояс: GMT + 2



    Вы не можете начинать темы
    Вы не можете отвечать на сообщения
    Вы не можете редактировать свои сообщения
    Вы не можете удалять свои сообщения
    Вы не можете голосовать в опросах
    Вы не можете прикреплять файлы к сообщениям
    Вы не можете скачивать файлы