BitTorrentTracker PerecTracker.org
BitTorrentTracker PerecTracker.org
    
Регистрация  ·  Вход
 
 · 
Забыли пароль?

  • Мужчины Эмдена / 13.000 Kilometer - Die Männer der Emden (Беренгар Фаль / Berengar Pfahl) [2012, Германия, драма, военный, приключения, BDRip] [Theatrical cut] AVO (Юрий Сербин)

    Ответить на тему
     
    Автор Сообщение

    Light

    Создавать темы 19-Июл-2015 21:53

           

    [Цитировать]

    Мужчины Эмдена / 13 тысяч километров. Мужчины Эмдена / 13.000 Kilometer - Die Männer der Emden / Theatrical cutСтрана: Германия
    Жанр: драма, военный, приключения
    Год выпуска: 2012
    Продолжительность: 02:28:18
    Перевод: Авторский (одноголосый закадровый) Юрий Сербин
    Cубтитры: нет
    Оригинальная аудиодорожка: нет
    Режиссер: Беренгар Пфаль / Berengar Pfahl
    В ролях: Сибель Кекилли, Кен Дюкен, Фелицитас Волль, Криз Крис Генри Харриз, Себастьян Бломберг, Оливер Кориттке, Кристиан Нёте, Андреас Пейп, Вольфганг Винклер, Маттиас Шлоо, Хим ван Хаувенинге, Петер Зодан, Давид Винтер, Шон Лоутон, Йен Т. Дикинсон, Шери Хэйген, Олаф Бурмейстер, Беньямин Морик, Мартин Рейнке, Эркан Караджайли, Норман Шенк, Фолькер Липман, Хольгер Спенглер
    Описание: Фильм основан на реальных событиях. После гибели известного немецкого рейдера - бронепалубного крейсера “ Эмден ” у Кокосовых островов 9 ноября 1914 года (в бою Эмден» потерял 131 человека убитыми и 65 ранеными, потери «Сиднея» составили трое убитых и восемь раненых), десантная команда численностью в 50 человек во главе с капитан-лейтенантом Мюкке избежала плена. Людям Мюкке удалось уйти в море на старом паруснике «Айша», использовавшемся для перевозки копры. На паруснике они добрались сначала до Паданга, а затем до порта Ходейда в Йемене, откуда по суше в июне 1915 года они прибыли в Константинополь - столицу Турции, союзника Германии в Первой мировой войне... Именно этому путешествию и посвящен фильм режиссера Беренгара Пфаля. Рейдерская война "Эмдена" - это одна из самых красивых и трагичных страниц морской истории, а с гибелью крейсера ушло благородство, на смену которому пришла жестокость подводной войны...
    Доп. информация: Собственный рип. Спасибо tambov68 за Сербина.
    Сэмпл: http://multi-up.com/1058970
    Качество видео: BDRip
    Исходник: Мужчины Эмдена / Die Männer der Emden (2012) [Theatrical cut] 1080p BD-Remux HDCLUB
    Формат видео: AVI
    Видео: XviD, 720x320 (2.25:1), 24.000 fps, 1627 kbps avg
    Аудио: Russian 48 kHz, AC3 Dolby Digital, 3/2 (L,C,R,l,r) + LFE ch, ~384.00 kbps avg

    MediaInfo

    General
    Complete name : F:\Emden\Die Manner der Emden_2012.BDRip.AVO.Serbin.avi
    Format : AVI
    Format/Info : Audio Video Interleave
    Format profile : OpenDML
    File size : 2.10 GiB
    Duration : 2h 28mn
    Overall bit rate : 2 023 Kbps
    Writing application : VirtualDubMod 1.5.10.3 | www.virtualdub-fr.org || (build 2550/release)
    Writing library : VirtualDubMod build 2550/release
    Video
    ID : 0
    Format : MPEG-4 Visual
    Format profile : Advanced Simple@L5
    Format settings, BVOP : 1
    Format settings, QPel : No
    Format settings, GMC : No warppoints
    Format settings, Matrix : Default (MPEG)
    Codec ID : XVID
    Codec ID/Hint : XviD
    Duration : 2h 28mn
    Bit rate : 1 627 Kbps
    Width : 720 pixels
    Height : 320 pixels
    Display aspect ratio : 2.25:1
    Frame rate : 24.000 fps
    Color space : YUV
    Chroma subsampling : 4:2:0
    Bit depth : 8 bits
    Scan type : Progressive
    Compression mode : Lossy
    Bits/(Pixel*Frame) : 0.294
    Stream size : 1.69 GiB (80%)
    Writing library : XviD 73
    Audio
    ID : 1
    Format : AC-3
    Format/Info : Audio Coding 3
    Mode extension : CM (complete main)
    Format settings, Endianness : Big
    Codec ID : 2000
    Duration : 2h 28mn
    Bit rate mode : Constant
    Bit rate : 384 Kbps
    Channel(s) : 6 channels
    Channel positions : Front: L C R, Side: L R, LFE
    Sampling rate : 48.0 KHz
    Compression mode : Lossy
    Stream size : 407 MiB (19%)
    Alignment : Split accross interleaves
    Interleave, duration : 42 ms (1.00 video frame)
    Interleave, preload duratio : 500 ms

    Скриншот c названием фильма

    Скриншоты

    Скачать .torrent

    Скачать торрент-файл бесплатно и на максимальной скорости!

    Как скачивать? · Что такое торрент? · Рейтинг и ограничения

    !ВНИМАНИЕ!
    Сайт не распространяет и не хранит электронные версии произведений, а занимается лишь лишь предоставлением доступа к создаваемому пользователями каталогу ссылок на торрент-файлы, которые содержат только списки хеш-сумм, убедительная просьба с жалобами обращаться напрямую к пользователю. Файлы для обмена на трекере предоставлены пользователями сайта, и администрация не несёт ответственности за их содержание. Просьба не заливать файлы, защищенные авторскими правами, а также файлы нелегального содержания!


    _________________
    [Профиль] [ЛС]
    Показать сообщения:    
    Ответить на тему

    Текущее время: Сегодня, в 02:32

    Часовой пояс: GMT + 2



    Вы не можете начинать темы
    Вы не можете отвечать на сообщения
    Вы не можете редактировать свои сообщения
    Вы не можете удалять свои сообщения
    Вы не можете голосовать в опросах
    Вы не можете прикреплять файлы к сообщениям
    Вы не можете скачивать файлы