BitTorrentTracker PerecTracker.org
BitTorrentTracker PerecTracker.org
    
Регистрация  ·  Вход
 
 · 
Забыли пароль?

  • Живой мертвец / Ни жив, ни мертв / Dead Awake (Омар Наим/ Omar Naim) [2011, США, мистика, драма, триллер, HDRip] DVO Katerina & Laids

    Ответить на тему
     
    Автор Сообщение

    -sasha2006

    Создавать темы 17-Апр-2011 21:46

           

    [Цитировать]

    Живой мертвец / Ни жив, ни мертв / Dead Awake
    --Страна: США
    Жанр: мистика, драма, триллер
    Год выпуска: 2010
    Продолжительность: 01:32:50--Озвучивание: Любительское (двухголосое) [Katerina & Laids]
    Перевод: [steelhawk]
    Cубтитры: нет--Режиссер: Омар Наим / Omar Naim
    Продюссер: Энтони Гудас, Лукас Джарач, Джейсон Прайс
    Сценарий: Джонни Харингтон, Джастин Урих, Дэвид Буавен
    В ролях: Ник Стал, Роуз МакГоун, Эми Смарт, Бен Мартен, Ким Гримальди, Бриан Луннер, Джастин Мархен, Джеймс Серпенто, Джек Мишлер, Шэйн Симмонс--Описание: После преждевременной гибели своих родителей в автомобильной аварии, главный герой фильма – Дилан О’Рорк замкнулся в себе. Разорвав отношения с бывшими школьными друзьями и любимой девушкой, он устроился работать в похоронное бюро. Его владелец сочувствует Дилану и уговаривает вернуться к прежней жизни. Но после десяти лет добровольного одиночества это не так просто сделать, как кажется. Иногда, чтобы возродиться, нужно… умереть. Пусть и понарошку. С помощью владельца бюро Дилан разыгрывает собственные похороны, чтобы посмотреть, кто придет с ним проститься. И тут в игру вступают совсем другие силы…--Бюджет: $3 500 000
    Премьера в Мире: 12 мая 2010
    R - Лицам до 17 лет обязательно присутствие взрослого

    --Качество видео: HDRip [Dead.Awake.(2010).1080p.BluRay.x264.AC3-HDC] ///СОВМЕСТИМО С БЫТОВЫМИ ПЛЕЕРАМИ///
    Формат видео: AVI
    Видео кодек: XviD
    Аудио кодек: AC3
    Видео: 720x400 (1.80:1), 23.976 fps, XviD build 50 ~1714 kbps avg, 0.25 bit/pixel
    Аудио: 48 kHz, AC3 Dolby Digital, 3/2 (L,C,R,l,r) + LFE ch, ~384.00 kbps avg--

    Скриншоты


    MediaInfo

    General
    Complete name : Dead.Awake.2010.L2.HDRip.[uniongang.tv].avi
    Format : AVI
    Format/Info : Audio Video Interleave
    File size : 1.37 GiB
    Duration : 1h 32mn
    Overall bit rate : 2 108 Kbps
    Writing application : VirtualDubModRus 1.5.10.2 (build 2542/release)
    Writing library : VirtualDubMod build 2542/release
    Video
    ID : 0
    Format : MPEG-4 Visual
    Format profile : Advanced Simple@L5
    Format settings, BVOP : 2
    Format settings, QPel : No
    Format settings, GMC : No warppoints
    Format settings, Matrix : Custom
    Codec ID : XVID
    Codec ID/Hint : XviD
    Duration : 1h 32mn
    Bit rate : 1 714 Kbps
    Width : 720 pixels
    Height : 400 pixels
    Display aspect ratio : 16:9
    Frame rate : 23.976 fps
    Color space : YUV
    Chroma subsampling : 4:2:0
    Bit depth : 8 bits
    Scan type : Progressive
    Compression mode : Lossy
    Bits/(Pixel*Frame) : 0.248
    Stream size : 1.11 GiB (81%)
    Writing library : XviD 1.2.1 (UTC 2008-12-04)
    Audio
    ID : 1
    Format : AC-3
    Format/Info : Audio Coding 3
    Mode extension : CM (complete main)
    Codec ID : 2000
    Duration : 1h 32mn
    Bit rate mode : Constant
    Bit rate : 384 Kbps
    Channel(s) : 6 channels
    Channel positions : Front: L C R, Side: L R, LFE
    Sampling rate : 48.0 KHz
    Bit depth : 16 bits
    Compression mode : Lossy
    Stream size : 255 MiB (18%)
    Alignment : Split accross interleaves
    Interleave, duration : 42 ms (1.00 video frame)
    Interleave, preload duration : 500 ms
    Скачать .torrent

    Скачать торрент-файл бесплатно и на максимальной скорости!

    Как скачивать? · Что такое торрент? · Рейтинг и ограничения

    !ВНИМАНИЕ!
    Сайт не распространяет и не хранит электронные версии произведений, а занимается лишь лишь предоставлением доступа к создаваемому пользователями каталогу ссылок на торрент-файлы, которые содержат только списки хеш-сумм, убедительная просьба с жалобами обращаться напрямую к пользователю. Файлы для обмена на трекере предоставлены пользователями сайта, и администрация не несёт ответственности за их содержание. Просьба не заливать файлы, защищенные авторскими правами, а также файлы нелегального содержания!


    _________________

    ░▒▓█▀▄▀▄▀▄█▓▒░
    [Профиль] [ЛС]
    Показать сообщения:    
    Ответить на тему

    Текущее время: Сегодня, в 08:24

    Часовой пояс: GMT + 2



    Вы не можете начинать темы
    Вы не можете отвечать на сообщения
    Вы не можете редактировать свои сообщения
    Вы не можете удалять свои сообщения
    Вы не можете голосовать в опросах
    Вы не можете прикреплять файлы к сообщениям
    Вы не можете скачивать файлы