BitTorrentTracker PerecTracker.org
BitTorrentTracker PerecTracker.org
    
Регистрация  ·  Вход
 
 · 
Забыли пароль?

  • Демоны Деборы Логан / The Taking (Адам Робител / Adam Robitel) [2014, США, ужасы, триллер, детектив, HDRip-AVC] Dub + Sub (Eng)

    Ответить на тему
     
    Автор Сообщение

    Light

    Создавать темы 19-Июл-2015 21:53

           

    [Цитировать]

    Демоны Деборы Логан
    The Taking


    Страна: США
    Жанр: ужасы, триллер, детектив
    Год выпуска: 2014
    Продолжительность: 01:30:06
    Перевод: Профессиональный (полное дублирование) [Лицензия]
    Субтитры: английские, английские (SDH)
    Оригинальная аудиодорожка: нет
    Режиссер: Адам Робител / Adam Robitel
    В ролях: Джилл Ларсон, Энн Рэмси, Мишель Энг, Райан Кутрона, Энн Нахабидиан, Бретт Джентиле, Джереми ДеКарлос, Тоня Бладсворт, Джулианна Тейлор, Яна Аллен, Блайт Бэррингтон-Хьюз, Дейв Блеми
    Описание:
    Съемочная группа начинает наблюдение над Деборой Логан, устанавливая камеры в ее доме. Хроника безумия оборачивается одержимостью, имеющей страшные и непредсказуемые причины.

    Релиз:
    Автор рипа: Stalker oK
    Сэмпл
    Качество видео: HDRip-AVC [BDRip 1080p]
    Формат видео: MKV
    Видео кодек: AVC
    Аудио кодек: AC3
    Видео: 1860 Кбит/сек, 960x518 (1.853), 23,976 кадр/сек, AVC
    Аудио: русский, 448 Кбит/сек, 48 КГц, 16 бит, 5.1, AC3
    Навигация по главам: есть

    MediaInfo

    General
    Unique ID : 244900759407506129669092691535812982173 (0xB83E2BAC169A9345BBE94D1862C5759D)
    Complete name : M:\Рипы\Демоны Деборы Логан\The Taking.2014.HDRip-AVC.Dub.1.45Gb...stalkerok.new-team.mkv
    Format : Matroska
    Format version : Version 4 / Version 2
    File size : 1.45 GiB
    Duration : 1h 30mn
    Overall bit rate : 2 309 Kbps
    Movie name : The Taking (2014) (New-Team) (Rip by Stalker oK)
    Encoded date : UTC 2015-07-17 19:21:23
    Writing application : mkvmerge v7.9.0 ('Birds') 64bit
    Writing library : libebml v1.3.1 + libmatroska v1.4.2
    DURATION : 01:24:00.703000000
    NUMBER_OF_FRAMES : 1624
    NUMBER_OF_BYTES : 56607
    _STATISTICS_WRITING_APP : mkvmerge v7.9.0 ('Birds') 64bit
    _STATISTICS_WRITING_DATE_UTC : 2015-07-17 19:21:23
    _STATISTICS_TAGS : BPS DURATION NUMBER_OF_FRAMES NUMBER_OF_BYTES
    Video
    ID : 1
    Format : AVC
    Format/Info : Advanced Video Codec
    Format profile : High@L4.1
    Format settings, CABAC : Yes
    Format settings, ReFrames : 12 frames
    Codec ID : V_MPEG4/ISO/AVC
    Duration : 1h 30mn
    Bit rate : 1 860 Kbps
    Width : 960 pixels
    Height : 518 pixels
    Display aspect ratio : 1.853
    Frame rate : 23.976 fps
    Color space : YUV
    Chroma subsampling : 4:2:0
    Bit depth : 8 bits
    Scan type : Progressive
    Bits/(Pixel*Frame) : 0.156
    Stream size : 1.14 GiB (79%)
    Title : The Taking (2014) (New-Team) (Rip by Stalker oK)
    Writing library : x264 core 146 r2538kMod 121396c
    Encoding settings : cabac=1 / ref=12 / deblock=1:-3:-2 / analyse=0x3:0x133 / me=umh / subme=11 / psy=1 / fade_compensate=0.00 / psy_rd=1.08:0.05 / mixed_ref=1 / me_range=32 / chroma_me=1 / trellis=2 / 8x8dct=1 / cqm=0 / deadzone=21,11 / fast_pskip=0 / chroma_qp_offset=-3 / threads=12 / lookahead_threads=3 / sliced_threads=0 / nr=0 / decimate=0 / interlaced=0 / bluray_compat=0 / constrained_intra=0 / fgo=0 / bframes=14 / b_pyramid=2 / b_adapt=2 / b_bias=0 / direct=3 / weightb=1 / open_gop=0 / weightp=2 / keyint=240 / keyint_min=23 / scenecut=40 / intra_refresh=0 / rc_lookahead=60 / rc=2pass / mbtree=0 / bitrate=1860 / ratetol=1.0 / qcomp=0.70 / qpmin=0 / qpmax=69 / qpstep=4 / cplxblur=20.0 / qblur=0.5 / vbv_maxrate=50000 / vbv_bufsize=62500 / nal_hrd=none / filler=0 / ip_ratio=1.40 / pb_ratio=1.30 / aq=3:0.85
    Default : Yes
    Forced : No
    DURATION : 01:30:06.026000000
    NUMBER_OF_FRAMES : 129615
    NUMBER_OF_BYTES : 1256432042
    _STATISTICS_WRITING_APP : mkvmerge v7.9.0 ('Birds') 64bit
    _STATISTICS_WRITING_DATE_UTC : 2015-07-17 19:21:23
    _STATISTICS_TAGS : BPS DURATION NUMBER_OF_FRAMES NUMBER_OF_BYTES
    Audio
    ID : 2
    Format : AC-3
    Format/Info : Audio Coding 3
    Mode extension : CM (complete main)
    Codec ID : A_AC3
    Duration : 1h 30mn
    Bit rate mode : Constant
    Bit rate : 448 Kbps
    Channel(s) : 6 channels
    Channel positions : Front: L C R, Side: L R, LFE
    Sampling rate : 48.0 KHz
    Bit depth : 16 bits
    Compression mode : Lossy
    Stream size : 289 MiB (19%)
    Language : Russian
    Default : Yes
    Forced : No
    Text #1
    ID : 3
    Format : UTF-8
    Codec ID : S_TEXT/UTF8
    Codec ID/Info : UTF-8 Plain Text
    Title : English
    Language : English
    Default : No
    Forced : No
    Text #2
    ID : 4
    Format : UTF-8
    Codec ID : S_TEXT/UTF8
    Codec ID/Info : UTF-8 Plain Text
    Title : English (SDH)
    Language : English
    Default : No
    Forced : No
    Menu
    00:00:00.000 : en:00:00:00.000
    00:08:20.583 : en:00:08:20.583
    00:14:55.103 : en:00:14:55.103
    00:22:32.935 : en:00:22:32.935
    00:29:48.620 : en:00:29:48.620
    00:38:01.613 : en:00:38:01.613
    00:45:19.926 : en:00:45:19.926
    00:52:46.455 : en:00:52:46.455
    00:59:43.246 : en:00:59:43.246
    01:09:02.722 : en:01:09:02.722
    01:17:14.839 : en:01:17:14.839
    01:24:17.427 : en:01:24:17.427

    Скриншоты

    Скачать .torrent

    Скачать торрент-файл бесплатно и на максимальной скорости!

    Как скачивать? · Что такое торрент? · Рейтинг и ограничения

    !ВНИМАНИЕ!
    Сайт не распространяет и не хранит электронные версии произведений, а занимается лишь лишь предоставлением доступа к создаваемому пользователями каталогу ссылок на торрент-файлы, которые содержат только списки хеш-сумм, убедительная просьба с жалобами обращаться напрямую к пользователю. Файлы для обмена на трекере предоставлены пользователями сайта, и администрация не несёт ответственности за их содержание. Просьба не заливать файлы, защищенные авторскими правами, а также файлы нелегального содержания!


    _________________
    [Профиль] [ЛС]
    Показать сообщения:    
    Ответить на тему

    Текущее время: Сегодня, в 10:38

    Часовой пояс: GMT + 2



    Вы не можете начинать темы
    Вы не можете отвечать на сообщения
    Вы не можете редактировать свои сообщения
    Вы не можете удалять свои сообщения
    Вы не можете голосовать в опросах
    Вы не можете прикреплять файлы к сообщениям
    Вы не можете скачивать файлы