BitTorrentTracker PerecTracker.org
BitTorrentTracker PerecTracker.org
    
Регистрация  ·  Вход
 
 · 
Забыли пароль?

  • Неизвестный солдат (Григорий Аронов, Вадим Зобин) [1984, детектив, военный, приключения, DVDRip]

    Ответить на тему
     
    Автор Сообщение

    Light

    Создавать темы 19-Июл-2015 17:41

           

    [Цитировать]

    Неизвестный солдат
    Жанр: Детектив, военный, приключения
    Год выпуска: 1984
    Продолжительность: 03:25:52
    Режиссёр: Григорий Аронов, Вадим Зобин
    В ролях: Василий Фунтиков, Николай Гринько, Людмила Новоселова, Роберт Спиричев, Юрий Оськин, Иван Шабалтас, Игорь Класс, Павел Белозеров, Артур Богатов, Эрнст Романов, Николай Гаевский, Сергей Вещев, Наталья Хорохорина, Капитолина Ильенко, Стефания Станюта, Галина Макарова
    Описание: Не попав в институт, Сергей Крашенинников приезжает к деду в небольшой городок и начинает работать в дорожной строительной бригаде. В ходе работ строители обнаруживают солдатскую могилу. Сергею поручают выяснить личность погибшего. Он начинает поиск...
    Доп. информация:
    Семпл: http://multi-up.com/1059129
    Формат видео: AVI
    Качество видео: DVDRip (DVD9)
    Видео: XviD, 640х480, 25fps, 875kbps
    Аудио: MPEG Layer 3, 2ch, 48000Hz, 128kbps

    MediaInfo

    General
    Complete name : Neizvestnyi.Soldat.1984.O.DVDRip.1400.MediaClub.CurHaJI.avi
    Format : AVI
    Format/Info : Audio Video Interleave
    File size : 1.46 GiB
    Duration : 3h 25mn
    Overall bit rate : 1 013 Kbps
    Movie name : Neizvestnyi.Soldat.1984.O.DVDRip.1400.MediaClub.CurHaJI
    Writing application : Lavf53.13.0
    Writing library : VirtualDub build 35491/release
    Video
    ID : 0
    Format : MPEG-4 Visual
    Format profile : Advanced Simple@L5
    Format settings, BVOP : 2
    Format settings, QPel : No
    Format settings, GMC : No warppoints
    Format settings, Matrix : Custom
    Codec ID : XVID
    Codec ID/Hint : XviD
    Duration : 3h 25mn
    Bit rate : 875 Kbps
    Width : 640 pixels
    Height : 480 pixels
    Display aspect ratio : 4:3
    Frame rate : 25.000 fps
    Color space : YUV
    Chroma subsampling : 4:2:0
    Bit depth : 8 bits
    Scan type : Progressive
    Compression mode : Lossy
    Bits/(Pixel*Frame) : 0.114
    Stream size : 1.26 GiB (86%)
    Writing library : XviD 64
    Audio
    ID : 1
    Format : MPEG Audio
    Format version : Version 1
    Format profile : Layer 3
    Codec ID : 55
    Codec ID/Hint : MP3
    Duration : 3h 25mn
    Bit rate mode : Constant
    Bit rate : 128 Kbps
    Channel(s) : 2 channels
    Sampling rate : 48.0 KHz
    Compression mode : Lossy
    Delay relative to video : 4ms
    Stream size : 188 MiB (13%)
    Alignment : Split accross interleaves
    Interleave, duration : 40 ms (1.00 video frame)
    Interleave, preload duration : 500 ms

    Скриншоты

    Скачать .torrent

    Скачать торрент-файл бесплатно и на максимальной скорости!

    Как скачивать? · Что такое торрент? · Рейтинг и ограничения

    !ВНИМАНИЕ!
    Сайт не распространяет и не хранит электронные версии произведений, а занимается лишь лишь предоставлением доступа к создаваемому пользователями каталогу ссылок на торрент-файлы, которые содержат только списки хеш-сумм, убедительная просьба с жалобами обращаться напрямую к пользователю. Файлы для обмена на трекере предоставлены пользователями сайта, и администрация не несёт ответственности за их содержание. Просьба не заливать файлы, защищенные авторскими правами, а также файлы нелегального содержания!


    _________________
    [Профиль] [ЛС]
    Показать сообщения:    
    Ответить на тему

    Текущее время: Сегодня, в 20:12

    Часовой пояс: GMT + 2



    Вы не можете начинать темы
    Вы не можете отвечать на сообщения
    Вы не можете редактировать свои сообщения
    Вы не можете удалять свои сообщения
    Вы не можете голосовать в опросах
    Вы не можете прикреплять файлы к сообщениям
    Вы не можете скачивать файлы