Register  ·  Log in
Forgot password?

  • Неизвестный солдат (Григорий Аронов, Вадим Зобин) [1984, детектив, военный, приключения, DVDRip]

    Reply to topic
    Author Message


    Post 19-Jul-2015 18:41



    Неизвестный солдат
    Жанр: Детектив, военный, приключения
    Год выпуска: 1984
    Продолжительность: 03:25:52
    Режиссёр: Григорий Аронов, Вадим Зобин
    В ролях: Василий Фунтиков, Николай Гринько, Людмила Новоселова, Роберт Спиричев, Юрий Оськин, Иван Шабалтас, Игорь Класс, Павел Белозеров, Артур Богатов, Эрнст Романов, Николай Гаевский, Сергей Вещев, Наталья Хорохорина, Капитолина Ильенко, Стефания Станюта, Галина Макарова
    Описание: Не попав в институт, Сергей Крашенинников приезжает к деду в небольшой городок и начинает работать в дорожной строительной бригаде. В ходе работ строители обнаруживают солдатскую могилу. Сергею поручают выяснить личность погибшего. Он начинает поиск...
    Доп. информация:
    Формат видео: AVI
    Качество видео: DVDRip (DVD9)
    Видео: XviD, 640х480, 25fps, 875kbps
    Аудио: MPEG Layer 3, 2ch, 48000Hz, 128kbps


    Complete name : Neizvestnyi.Soldat.1984.O.DVDRip.1400.MediaClub.CurHaJI.avi
    Format : AVI
    Format/Info : Audio Video Interleave
    File size : 1.46 GiB
    Duration : 3h 25mn
    Overall bit rate : 1 013 Kbps
    Movie name : Neizvestnyi.Soldat.1984.O.DVDRip.1400.MediaClub.CurHaJI
    Writing application : Lavf53.13.0
    Writing library : VirtualDub build 35491/release
    ID : 0
    Format : MPEG-4 Visual
    Format profile : Advanced Simple@L5
    Format settings, BVOP : 2
    Format settings, QPel : No
    Format settings, GMC : No warppoints
    Format settings, Matrix : Custom
    Codec ID : XVID
    Codec ID/Hint : XviD
    Duration : 3h 25mn
    Bit rate : 875 Kbps
    Width : 640 pixels
    Height : 480 pixels
    Display aspect ratio : 4:3
    Frame rate : 25.000 fps
    Color space : YUV
    Chroma subsampling : 4:2:0
    Bit depth : 8 bits
    Scan type : Progressive
    Compression mode : Lossy
    Bits/(Pixel*Frame) : 0.114
    Stream size : 1.26 GiB (86%)
    Writing library : XviD 64
    ID : 1
    Format : MPEG Audio
    Format version : Version 1
    Format profile : Layer 3
    Codec ID : 55
    Codec ID/Hint : MP3
    Duration : 3h 25mn
    Bit rate mode : Constant
    Bit rate : 128 Kbps
    Channel(s) : 2 channels
    Sampling rate : 48.0 KHz
    Compression mode : Lossy
    Delay relative to video : 4ms
    Stream size : 188 MiB (13%)
    Alignment : Split accross interleaves
    Interleave, duration : 40 ms (1.00 video frame)
    Interleave, preload duration : 500 ms


    Download .torrent

    Download free and at maximum speed!

    How to Download? · What is a torrent? · Ratings and Limitations

    The site does not extend and does not store electronic(digital) versions of products, and only gives access to a reference catalogue created by users on torrent-files which contain only lists of the hash-sums, the earnest entreaty, with complaints(abuse) to access directly to the user. Files for an exchange on tracker are given by users of a site, and the administration does not bear the responsibility for their maintenance. The request to not fill in the files protected by copyrights, and also files of the illegal maintenance!

    [Profile] [PM]
    Display posts from previous:    
    Reply to topic

    The time now is: Today 02:46

    All times are GMT + 3 Hours

    You cannot post new topics in this forum
    You cannot reply to topics in this forum
    You cannot edit your posts in this forum
    You cannot delete your posts in this forum
    You cannot vote in polls in this forum
    You cannot attach files in this forum
    You cannot download files in this forum