BitTorrentTracker PerecTracker.org
BitTorrentTracker PerecTracker.org
    
Регистрация  ·  Вход
 
 · 
Забыли пароль?

  • По прозвищу «Зверь» (Александр Муратов) [1990, Боевик, криминал, SATRip-AVC]

    Ответить на тему
     
    Автор Сообщение

    Light

    Создавать темы 19-Июл-2015 17:41

           

    [Цитировать]

    -По прозвищу «Зверь»-Жанр: Боевик, криминал
    Год выпуска: 1990
    Продолжительность: 01:21:50-Режиссёр: Александр Муратов-В ролях: Дмитрий Певцов, Татьяна Скороходова, Борис Щербаков, Юрий Назаров, Лев Прыгунов, Владимир Аникин, Армен Джигарханян, Евгений Евстигнеев, Владимир Самойлов, Игорь Ясулович-Описание: «Зверь» — так прозвали его те, кто попробовал его ломовые удары. Гордость спецназа, прошедший войну в Афганистане, получил срок, спасая друга. В лагере он попал в кольцо — все против него, а с воли за ним идут наемные убийцы. Он совершает побег, чтобы рассчитаться с врагами, а главное — спасти беззащитную золотоволосую красавицу.-Доп. информация:

    Вырезана значительная часть титров в начале из-за наложенной на них рекламы этого же фильма. Также уже сам канал вырезал сцену с женской грудью на 01:07:27.
    Звук лучше чем на DVD. По крайней мере нет глухого эха от каждого шага. Наполнение кадра больше.-Сэмпл: https://yadi.sk/i/4insTnNthwvMo-Качество видео: SATRip-AVC
    Формат видео: MKV
    Видео кодек: H.264
    Аудио кодек: AC3
    Видео: 720х528 (4:3), 25 fps, ~2394 kbps
    Аудио: 48 kHz, AC3 Dolby Digital, 2/0 (L,R) ch, ~192 kbps

    MediaInfo

    General
    Unique ID : 188765130629780555321847596407279547385 (0x8E02D77D2A122A9D80DE3EF2AE0F73F9)
    Complete name : C:\Torrent\По прозвищу Зверь.1990.SATRip-AVC by Dmitrio7197\По прозвищу Зверь.1990.SATRip-AVC by Dmitrio7197.mkv
    Format : Matroska
    Format version : Version 2
    File size : 1.48 GiB
    Duration : 1h 21mn
    Overall bit rate : 2 588 Kbps
    Encoded date : UTC 2015-07-19 09:27:38
    Writing application : mkvmerge v6.1.0 ('Old Devil') built on Mar 4 2013 09:10:42
    Writing library : libebml v1.3.0 + libmatroska v1.4.0
    Video
    ID : 1
    Format : AVC
    Format/Info : Advanced Video Codec
    Format profile : High@L4.1
    Format settings, CABAC : Yes
    Format settings, ReFrames : 8 frames
    Codec ID : V_MPEG4/ISO/AVC
    Duration : 1h 21mn
    Bit rate : 2 394 Kbps
    Width : 720 pixels
    Height : 528 pixels
    Display aspect ratio : 4:3
    Frame rate mode : Constant
    Frame rate : 25.000 fps
    Color space : YUV
    Chroma subsampling : 4:2:0
    Bit depth : 8 bits
    Scan type : Progressive
    Bits/(Pixel*Frame) : 0.252
    Stream size : 1.34 GiB (91%)
    Writing library : x264 core 130 r2273 b3065e6
    Encoding settings : cabac=1 / ref=8 / deblock=1:0:0 / analyse=0x3:0x113 / me=umh / subme=9 / psy=1 / psy_rd=1.00:0.00 / mixed_ref=1 / me_range=24 / chroma_me=1 / trellis=1 / 8x8dct=1 / cqm=0 / deadzone=21,11 / fast_pskip=1 / chroma_qp_offset=-2 / threads=6 / lookahead_threads=1 / sliced_threads=0 / nr=0 / decimate=0 / interlaced=0 / bluray_compat=0 / constrained_intra=0 / bframes=8 / b_pyramid=2 / b_adapt=1 / b_bias=0 / direct=3 / weightb=1 / open_gop=0 / weightp=2 / keyint=250 / keyint_min=25 / scenecut=40 / intra_refresh=0 / rc_lookahead=40 / rc=2pass / mbtree=1 / bitrate=2394 / ratetol=1.0 / qcomp=0.60 / qpmin=0 / qpmax=69 / qpstep=4 / cplxblur=20.0 / qblur=0.5 / ip_ratio=1.40 / aq=1:1.00
    Default : Yes
    Forced : No
    Audio
    ID : 2
    Format : AC-3
    Format/Info : Audio Coding 3
    Mode extension : CM (complete main)
    Format settings, Endianness : Big
    Codec ID : A_AC3
    Duration : 1h 21mn
    Bit rate mode : Constant
    Bit rate : 192 Kbps
    Channel(s) : 2 channels
    Channel positions : Front: L R
    Sampling rate : 48.0 KHz
    Bit depth : 16 bits
    Compression mode : Lossy
    Stream size : 112 MiB (7%)
    Default : Yes
    Forced : No

    Скриншоты

    -
    Скачать .torrent

    Скачать торрент-файл бесплатно и на максимальной скорости!

    Как скачивать? · Что такое торрент? · Рейтинг и ограничения

    !ВНИМАНИЕ!
    Сайт не распространяет и не хранит электронные версии произведений, а занимается лишь лишь предоставлением доступа к создаваемому пользователями каталогу ссылок на торрент-файлы, которые содержат только списки хеш-сумм, убедительная просьба с жалобами обращаться напрямую к пользователю. Файлы для обмена на трекере предоставлены пользователями сайта, и администрация не несёт ответственности за их содержание. Просьба не заливать файлы, защищенные авторскими правами, а также файлы нелегального содержания!


    _________________
    [Профиль] [ЛС]
    Показать сообщения:    
    Ответить на тему

    Текущее время: Сегодня, в 16:16

    Часовой пояс: GMT + 2



    Вы не можете начинать темы
    Вы не можете отвечать на сообщения
    Вы не можете редактировать свои сообщения
    Вы не можете удалять свои сообщения
    Вы не можете голосовать в опросах
    Вы не можете прикреплять файлы к сообщениям
    Вы не можете скачивать файлы