BitTorrentTracker PerecTracker.org
BitTorrentTracker PerecTracker.org
    
Регистрация  ·  Вход
 
 · 
Забыли пароль?

  • Другая Бовари / Gemma Bovery (Анн Фонтен / Anne Fontaine) [2014, Франция, Великобритания, драма, мелодрама, комедия, BDRip 720p] Dub + Sub Rus, Eng, Fre + Original Fre

    Ответить на тему
     
    Автор Сообщение

    Flirldrerve

    Создавать темы 19-Июл-2015 09:17

           

    [Цитировать]

    Другая Бовари / Gemma Bovery
    Страна: Франция, Великобритания
    Студия: France 2 Cinéma
    Жанр: драма, мелодрама, комедия
    Год выпуска: 2014
    Продолжительность: 01:39:00
    Перевод: Профессиональный (дублированный)
    Cубтитры: Rus, Eng, Fre
    Оригинальная аудиодорожка: французский
    Режиссер: Анн Фонтен / Anne Fontaine
    В ролях: Фабрис Лукини, Джемма Артертон, Джейсон Флеминг, Изабель Канделье, Нильс Шнайдер, Мел Райдо, Эльза Зильберштейн, Пип Торренс, Кейси Моттет Кляйн, Эдит Скоб
    Описание: Писатель, которому не улыбнулся успех в Париже, возвращается в родную нормандскую деревеньку. Но она оказывается тесноватой для богатого воображения Мартена Жубера. Долгое увлечение серьезной литературой не проходит даром. Можно представить себе его волнение, когда в дом по соседству приезжает английская пара по фамилии Бовери. Их не только зовут почти как героев романа Флобера, но, кажется, они проходят тот же путь, что и их литературные визави. Беда в том, что сама Джемма не читала трагического произведения. И даже не горит желанием.
    Доп. информация: За предоставленный Blu-Ray диск благодарность L'

    Тип релиза: BDRip 720p
    Контейнер: MKV
    Видео: MPEG-4 AVC, 5773 Кбит/с, 1280x534, 24,000 fps
    Аудио: Rus, AC3, 448 kb/s (6 ch), 48 kHz
    Аудио 2: Fre, DTS, 1510 kb/s (6 ch), 48 kHz
    Формат субтитров: softsub (SRT)

    MediaInfo

    x264 [info]: frame I:838 Avg QP:14.91 size:114394
    x264 [info]: frame P:30343 Avg QP:16.45 size: 57442
    x264 [info]: frame B:111379 Avg QP:18.19 size: 23008
    x264 [info]: consecutive B-frames: 2.3% 3.5% 6.6% 10.9% 11.5% 58.3% 3.8% 0.5% 1.1% 0.6% 0.9%
    Format : Matroska
    Format version : Version 4 / Version 2
    File size : 5.45 GiB
    Duration : 1h 39mn
    Overall bit rate : 7 887 Kbps
    Movie name : Другая Бовари. (Tonik)
    Encoded date : UTC 2015-07-19 03:25:58
    Writing application : mkvmerge v7.1.0 ('Good Love') 64bit built on Jul 27 2014 13:06:55
    Writing library : libebml v1.3.0 + libmatroska v1.4.1
    _STATISTICS_WRITING_APP : mkvmerge v7.1.0 ('Good Love') 64bit built on Jul 27 2014 13:06:55
    _STATISTICS_WRITING_DATE_UTC : 2015-07-19 03:25:58
    _STATISTICS_TAGS : BPS DURATION NUMBER_OF_FRAMES NUMBER_OF_BYTES
    DURATION : 01:39:00.000000000
    NUMBER_OF_FRAMES : 185625
    NUMBER_OF_BYTES : 332640000
    Video
    ID : 1
    Format : AVC
    Format/Info : Advanced Video Codec
    Format profile : High@L4.1
    Format settings, CABAC : Yes
    Format settings, ReFrames : 12 frames
    Codec ID : V_MPEG4/ISO/AVC
    Duration : 1h 39mn
    Bit rate : 5 773 Kbps
    Width : 1 280 pixels
    Height : 534 pixels
    Display aspect ratio : 2.40:1
    Frame rate mode : Constant
    Frame rate : 24.000 fps
    Color space : YUV
    Chroma subsampling : 4:2:0
    Bit depth : 8 bits
    Scan type : Progressive
    Bits/(Pixel*Frame) : 0.352
    Stream size : 3.99 GiB (73%)
    Title : Tonik
    Writing library : x264 core 146 r2538 121396c
    Encoding settings : cabac=1 / ref=12 / deblock=1:-3:-3 / analyse=0x3:0x133 / me=umh / subme=11 / psy=1 / psy_rd=1.00:0.00 / mixed_ref=1 / me_range=32 / chroma_me=1 / trellis=2 / 8x8dct=1 / cqm=0 / deadzone=21,11 / fast_pskip=0 / chroma_qp_offset=-2 / threads=12 / lookahead_threads=3 / sliced_threads=0 / nr=0 / decimate=1 / interlaced=0 / bluray_compat=0 / constrained_intra=0 / bframes=10 / b_pyramid=2 / b_adapt=2 / b_bias=0 / direct=1 / weightb=1 / open_gop=0 / weightp=2 / keyint=250 / keyint_min=24 / scenecut=40 / intra_refresh=0 / rc=crf / mbtree=0 / crf=16.8 / qcomp=0.60 / qpmin=0 / qpmax=69 / qpstep=4 / ip_ratio=1.40 / pb_ratio=1.30 / aq=1:1.00
    Language : French
    Default : Yes
    Forced : No
    _STATISTICS_WRITING_APP : mkvmerge v7.1.0 ('Good Love') 64bit built on Jul 27 2014 13:06:55
    _STATISTICS_WRITING_DATE_UTC : 2015-07-19 03:25:58
    _STATISTICS_TAGS : BPS DURATION NUMBER_OF_FRAMES NUMBER_OF_BYTES
    DURATION : 01:39:00.000000000
    NUMBER_OF_FRAMES : 142560
    NUMBER_OF_BYTES : 4401406448
    Audio #1
    ID : 2
    Format : AC-3
    Format/Info : Audio Coding 3
    Mode extension : CM (complete main)
    Format settings, Endianness : Big
    Codec ID : A_AC3
    Duration : 1h 39mn
    Bit rate mode : Constant
    Bit rate : 448 Kbps
    Channel(s) : 6 channels
    Channel positions : Front: L C R, Side: L R, LFE
    Sampling rate : 48.0 KHz
    Bit depth : 16 bits
    Compression mode : Lossy
    Stream size : 317 MiB (6%)
    Language : Russian
    Default : Yes
    Forced : No
    Audio #2
    ID : 3
    Format : DTS
    Format/Info : Digital Theater Systems
    Mode : 16
    Format settings, Endianness : Big
    Codec ID : A_DTS
    Duration : 1h 39mn
    Bit rate mode : Constant
    Bit rate : 1 509 Kbps
    Channel(s) : 6 channels
    Channel positions : Front: L C R, Side: L R, LFE
    Sampling rate : 48.0 KHz
    Bit depth : 24 bits
    Compression mode : Lossy
    Stream size : 1.04 GiB (19%)
    Language : French
    Default : No
    Forced : No
    Text #1
    ID : 4
    Format : UTF-8
    Codec ID : S_TEXT/UTF8
    Codec ID/Info : UTF-8 Plain Text
    Language : Russian
    Default : No
    Forced : No
    Text #2
    ID : 5
    Format : UTF-8
    Codec ID : S_TEXT/UTF8
    Codec ID/Info : UTF-8 Plain Text
    Language : English
    Default : No
    Forced : No
    Text #3
    ID : 6
    Format : UTF-8
    Codec ID : S_TEXT/UTF8
    Codec ID/Info : UTF-8 Plain Text
    Language : French
    Default : No
    Forced : No

    Скриншоты

    Перекачайте файл. Замена Русской дорожки!
    Скачать .torrent

    Скачать торрент-файл бесплатно и на максимальной скорости!

    Как скачивать? · Что такое торрент? · Рейтинг и ограничения

    !ВНИМАНИЕ!
    Сайт не распространяет и не хранит электронные версии произведений, а занимается лишь лишь предоставлением доступа к создаваемому пользователями каталогу ссылок на торрент-файлы, которые содержат только списки хеш-сумм, убедительная просьба с жалобами обращаться напрямую к пользователю. Файлы для обмена на трекере предоставлены пользователями сайта, и администрация не несёт ответственности за их содержание. Просьба не заливать файлы, защищенные авторскими правами, а также файлы нелегального содержания!


    _________________
    [Профиль] [ЛС]
    Показать сообщения:    
    Ответить на тему

    Текущее время: Сегодня, в 02:08

    Часовой пояс: GMT + 2



    Вы не можете начинать темы
    Вы не можете отвечать на сообщения
    Вы не можете редактировать свои сообщения
    Вы не можете удалять свои сообщения
    Вы не можете голосовать в опросах
    Вы не можете прикреплять файлы к сообщениям
    Вы не можете скачивать файлы