BitTorrentTracker PerecTracker.org
BitTorrentTracker PerecTracker.org
    
Регистрация  ·  Вход
 
 · 
Забыли пароль?

  • Горячая душа (Евгений Немченко) [1959, производственная драма, социальная драма, WEB-DLRip]

    Ответить на тему
     
    Автор Сообщение

    Light

    Создавать темы 19-Июл-2015 05:05

           

    [Цитировать]

    Горячая душа
    Жанр: производственная драма, социальная драма
    Год выпуска: 1959
    Продолжительность: 01:23:23
    Режиссёр: Евгений Немченко
    В ролях: Василий Векшин, Светлана Данильченко, Василий Меркурьев, Владимир Емельянов, Олег Басилашвили, Игорь Владимиров, Валентин Архипенко, Евгений Немченко, Михаил Петров, Н.Михайлов, В. Бобров, Олег Хроменков, Алексей Смирнов, Светлана Алексеева, Татьяна Гурецкая, Николай Емельянов
    Описание: Молодой сталевар Федор Шебалин ставит перед начальством вопросы по организации производства и выдвигает ряд предложений. Наивному парню приказывают работать, как положено. Парень не сдается, привлекает к своим экспериментам молодежь завода. Молодые сталевары решают провести опытную плавку самостоятельно. По недосмотру подручного металл преждевременно хлынул из печи. За самоуправство директор переводит Фёдора но уборку мусора. Но о предложении Шебалина не забыли. Вторая опытная плавка проходит успешно.
    Семпл: http://sendfile.su/1138477
    Качество видео: WEB-DLRip
    Формат видео: AVI
    Видео: XviD; 640x480; 4:3; 25.000 fps; 1637 Kbps
    Аудио: Rus; MP3; 44.1 KHz; 128 Kbps; 2 channels

    MediaInfo

    General
    Format : AVI
    Format/Info : Audio Video Interleave
    Format profile : OpenDML
    File size : 1.04 GiB
    Duration : 1h 23mn
    Overall bit rate : 1 781 Kbps
    Writing application : XviD4PSP 6.0 / 54.29.105
    Video #1
    ID : 1
    Format : xvid
    Codec ID : xvid
    Duration : 1h 23mn
    Bit rate : 1 637 Kbps
    Width : 640 pixels
    Height : 480 pixels
    Display aspect ratio : 4:3
    Frame rate : 25.000 fps
    Bits/(Pixel*Frame) : 0.213
    Stream size : 977 MiB (92%)
    Audio #0
    ID : 0
    Format : MPEG Audio
    Format version : Version 1
    Format profile : Layer 3
    Mode : Joint stereo
    Mode extension : MS Stereo
    Codec ID : 55
    Codec ID/Hint : MP3
    Duration : 1h 23mn
    Bit rate mode : Constant
    Bit rate : 128 Kbps
    Channel(s) : 2 channels
    Sampling rate : 44.1 KHz
    Compression mode : Lossy
    Stream size : 76.3 MiB (7%)
    Alignment : Aligned on interleaves
    Interleave, duration : 40 ms (1.00 video frame)
    Writing library : LAME3.99.4UUUUUUUU

    Скриншоты







    Скачать .torrent

    Скачать торрент-файл бесплатно и на максимальной скорости!

    Как скачивать? · Что такое торрент? · Рейтинг и ограничения

    !ВНИМАНИЕ!
    Сайт не распространяет и не хранит электронные версии произведений, а занимается лишь лишь предоставлением доступа к создаваемому пользователями каталогу ссылок на торрент-файлы, которые содержат только списки хеш-сумм, убедительная просьба с жалобами обращаться напрямую к пользователю. Файлы для обмена на трекере предоставлены пользователями сайта, и администрация не несёт ответственности за их содержание. Просьба не заливать файлы, защищенные авторскими правами, а также файлы нелегального содержания!


    _________________
    [Профиль] [ЛС]
    Показать сообщения:    
    Ответить на тему

    Текущее время: Сегодня, в 02:06

    Часовой пояс: GMT + 2



    Вы не можете начинать темы
    Вы не можете отвечать на сообщения
    Вы не можете редактировать свои сообщения
    Вы не можете удалять свои сообщения
    Вы не можете голосовать в опросах
    Вы не можете прикреплять файлы к сообщениям
    Вы не можете скачивать файлы