Register  ·  Log in
Forgot password?

  • Горячая душа (Евгений Немченко) [1959, производственная драма, социальная драма, WEB-DLRip]

    Reply to topic
    Author Message


    Post 19-Jul-2015 06:05



    Горячая душа
    Жанр: производственная драма, социальная драма
    Год выпуска: 1959
    Продолжительность: 01:23:23
    Режиссёр: Евгений Немченко
    В ролях: Василий Векшин, Светлана Данильченко, Василий Меркурьев, Владимир Емельянов, Олег Басилашвили, Игорь Владимиров, Валентин Архипенко, Евгений Немченко, Михаил Петров, Н.Михайлов, В. Бобров, Олег Хроменков, Алексей Смирнов, Светлана Алексеева, Татьяна Гурецкая, Николай Емельянов
    Описание: Молодой сталевар Федор Шебалин ставит перед начальством вопросы по организации производства и выдвигает ряд предложений. Наивному парню приказывают работать, как положено. Парень не сдается, привлекает к своим экспериментам молодежь завода. Молодые сталевары решают провести опытную плавку самостоятельно. По недосмотру подручного металл преждевременно хлынул из печи. За самоуправство директор переводит Фёдора но уборку мусора. Но о предложении Шебалина не забыли. Вторая опытная плавка проходит успешно.
    Качество видео: WEB-DLRip
    Формат видео: AVI
    Видео: XviD; 640x480; 4:3; 25.000 fps; 1637 Kbps
    Аудио: Rus; MP3; 44.1 KHz; 128 Kbps; 2 channels


    Format : AVI
    Format/Info : Audio Video Interleave
    Format profile : OpenDML
    File size : 1.04 GiB
    Duration : 1h 23mn
    Overall bit rate : 1 781 Kbps
    Writing application : XviD4PSP 6.0 / 54.29.105
    Video #1
    ID : 1
    Format : xvid
    Codec ID : xvid
    Duration : 1h 23mn
    Bit rate : 1 637 Kbps
    Width : 640 pixels
    Height : 480 pixels
    Display aspect ratio : 4:3
    Frame rate : 25.000 fps
    Bits/(Pixel*Frame) : 0.213
    Stream size : 977 MiB (92%)
    Audio #0
    ID : 0
    Format : MPEG Audio
    Format version : Version 1
    Format profile : Layer 3
    Mode : Joint stereo
    Mode extension : MS Stereo
    Codec ID : 55
    Codec ID/Hint : MP3
    Duration : 1h 23mn
    Bit rate mode : Constant
    Bit rate : 128 Kbps
    Channel(s) : 2 channels
    Sampling rate : 44.1 KHz
    Compression mode : Lossy
    Stream size : 76.3 MiB (7%)
    Alignment : Aligned on interleaves
    Interleave, duration : 40 ms (1.00 video frame)
    Writing library : LAME3.99.4UUUUUUUU


    Download .torrent

    Download free and at maximum speed!

    How to Download? · What is a torrent? · Ratings and Limitations

    The site does not extend and does not store electronic(digital) versions of products, and only gives access to a reference catalogue created by users on torrent-files which contain only lists of the hash-sums, the earnest entreaty, with complaints(abuse) to access directly to the user. Files for an exchange on tracker are given by users of a site, and the administration does not bear the responsibility for their maintenance. The request to not fill in the files protected by copyrights, and also files of the illegal maintenance!

    [Profile] [PM]
    Display posts from previous:    
    Reply to topic

    The time now is: Today 22:46

    All times are GMT + 3 Hours

    You cannot post new topics in this forum
    You cannot reply to topics in this forum
    You cannot edit your posts in this forum
    You cannot delete your posts in this forum
    You cannot vote in polls in this forum
    You cannot attach files in this forum
    You cannot download files in this forum