BitTorrentTracker PerecTracker.org
BitTorrentTracker PerecTracker.org
    
Регистрация  ·  Вход
 
 · 
Забыли пароль?

  • Топ Гир: Спецвыпуск в Бирме / Top Gear: The Burma Special (Расширенная версия) [2014 г., UK, Автопередача, BDRip 720p] MVO (AlexFilm)

    Ответить на тему
     
    Автор Сообщение

    Light

    Создавать темы 18-Июл-2015 16:29

           

    [Цитировать]

    -Топ Гир: Спецвыпуск в Бирме
    Top Gear: The Burma Special
    (Расширенная версия)
    --Год выхода: 2014
    Страна: Великобритания
    Жанр: Автопередача
    Продолжительность: 02:15:19
    Озвучание: профессиональное многоголосое закадровое (AlexFilm)
    Субтитры: английские-Режиссёр: Кит Робинсон (Kit Lynch-Robinson)
    В ролях: Джереми Кларксон (Jeremy Clarkson), Ричард Хаммонд (Richard Hammond), Джеймс Мэй (James May)-Описание: В увлекательном и полном приключений путешествии Ричард Хаммонд, Джереми Кларксон и Джеймс Мэй отправятся через Бирму в Таиланд для того, чтобы взяться за сооружение моста через реку Квай.-Релиз:
    Перевод: Константин Кривоногов
    Монтаж и сведение звука: Михаил Шорыгин
    Роли озвучивали:
  • Роман Сопко
  • Александр Дасевич
  • Константин Погодаев
  • Татьяна Манетина- -Качество видео: BDRip 720p (NTb)
    Формат: MKV
    Видео: 1280x720 (16:9), 25 fps, MPEG-4 AVC ~9350 kbps avg, 0.406 bit/pixel
    Аудио Rus: 48 kHz, AC3 Dolby Digital, 2/0 (L,R) ch, ~640.00 kbps
    Аудио Eng: 48 kHz, AC3 Dolby Digital, 2/0 (L,R) ch, ~640.00 kbps-Цитата:
    Цитата:

    Переведено и озвучено при поддержке пользователей AlexFilm: Annie Solomina, Skittles3SC, FeonoR, _alk0g0lik_, iosatori

    -

    Скриншоты

    MediaInfo

    Format : Matroska
    Format version : Version 4 / Version 2
    File size : 10.3 GiB
    Duration : 2h 15mn
    Overall bit rate : 10.8 Mbps
    Movie name : Top Gear: The Burma Special @ AlexFilm
    Encoded date : UTC 2015-07-13 10:23:26
    Writing application : mkvmerge v6.6.0 ('The Edge Of The In Between') built on Dec 1 2013 17:55:00
    Writing library : libebml v1.3.0 + libmatroska v1.4.1
    Video
    ID : 1
    Format : AVC
    Format/Info : Advanced Video Codec
    Format profile : High@L4.1
    Format settings, CABAC : Yes
    Format settings, ReFrames : 9 frames
    Codec ID : V_MPEG4/ISO/AVC
    Duration : 2h 15mn
    Bit rate : 9 350 Kbps
    Width : 1 280 pixels
    Height : 720 pixels
    Display aspect ratio : 16:9
    Frame rate mode : Constant
    Frame rate : 25.000 fps
    Color space : YUV
    Chroma subsampling : 4:2:0
    Bit depth : 8 bits
    Scan type : Progressive
    Bits/(Pixel*Frame) : 0.406
    Stream size : 8.84 GiB (86%)
    Writing library : x264 core 142 r2431 ac76440
    Encoding settings : cabac=1 / ref=9 / deblock=1:-3:-3 / analyse=0x3:0x133 / me=umh / subme=10 / psy=1 / psy_rd=0.95:0.00 / mixed_ref=1 / me_range=48 / chroma_me=1 / trellis=2 / 8x8dct=1 / cqm=0 / deadzone=21,11 / fast_pskip=1 / chroma_qp_offset=-2 / threads=4 / lookahead_threads=1 / sliced_threads=0 / nr=0 / decimate=1 / interlaced=0 / bluray_compat=0 / constrained_intra=0 / bframes=9 / b_pyramid=2 / b_adapt=2 / b_bias=0 / direct=3 / weightb=1 / open_gop=0 / weightp=2 / keyint=250 / keyint_min=25 / scenecut=40 / intra_refresh=0 / rc_lookahead=150 / rc=crf / mbtree=0 / crf=18.5 / qcomp=0.75 / qpmin=0 / qpmax=69 / qpstep=4 / vbv_maxrate=50000 / vbv_bufsize=62500 / crf_max=0.0 / nal_hrd=none / filler=0 / ip_ratio=1.30 / pb_ratio=1.20 / aq=1:0.70
    Language : English
    Default : Yes
    Forced : No
    Audio #1
    ID : 2
    Format : AC-3
    Format/Info : Audio Coding 3
    Mode extension : CM (complete main)
    Format settings, Endianness : Big
    Codec ID : A_AC3
    Duration : 2h 15mn
    Bit rate mode : Constant
    Bit rate : 640 Kbps
    Channel(s) : 2 channels
    Channel positions : Front: L R
    Sampling rate : 48.0 KHz
    Bit depth : 16 bits
    Compression mode : Lossy
    Stream size : 619 MiB (6%)
    Title : DD2.0 AlexFilm
    Language : Russian
    Default : Yes
    Forced : No
    Audio #2
    ID : 3
    Format : AC-3
    Format/Info : Audio Coding 3
    Mode extension : CM (complete main)
    Format settings, Endianness : Big
    Codec ID : A_AC3
    Duration : 2h 15mn
    Bit rate mode : Constant
    Bit rate : 640 Kbps
    Channel(s) : 2 channels
    Channel positions : Front: L R
    Sampling rate : 48.0 KHz
    Bit depth : 16 bits
    Compression mode : Lossy
    Stream size : 619 MiB (6%)
    Title : DD2.0 Original
    Language : English
    Default : No
    Forced : No
    Text
    ID : 4
    Format : UTF-8
    Codec ID : S_TEXT/UTF8
    Codec ID/Info : UTF-8 Plain Text
    Language : English
    Default : No
    Forced : No
    Menu
    00:00:00.000 : en:Chapter 1
    00:12:51.120 : en:Chapter 2
    00:22:00.480 : en:Chapter 3
    00:40:46.280 : en:Chapter 4
    00:58:19.080 : en:Chapter 5
    01:12:49.520 : en:Chapter 6
    01:22:39.920 : en:Chapter 7
    01:35:44.920 : en:Chapter 8
    01:46:08.600 : en:Chapter 9
    01:59:39.360 : en:Chapter 10
    -Раздачи Top Gear в озвучке AlexFilm-
    Скачать .torrent

    Скачать торрент-файл бесплатно и на максимальной скорости!

    Как скачивать? · Что такое торрент? · Рейтинг и ограничения

    !ВНИМАНИЕ!
    Сайт не распространяет и не хранит электронные версии произведений, а занимается лишь лишь предоставлением доступа к создаваемому пользователями каталогу ссылок на торрент-файлы, которые содержат только списки хеш-сумм, убедительная просьба с жалобами обращаться напрямую к пользователю. Файлы для обмена на трекере предоставлены пользователями сайта, и администрация не несёт ответственности за их содержание. Просьба не заливать файлы, защищенные авторскими правами, а также файлы нелегального содержания!


  • _________________
    [Профиль] [ЛС]
    Показать сообщения:    
    Ответить на тему

    Текущее время: Сегодня, в 05:23

    Часовой пояс: GMT + 2



    Вы не можете начинать темы
    Вы не можете отвечать на сообщения
    Вы не можете редактировать свои сообщения
    Вы не можете удалять свои сообщения
    Вы не можете голосовать в опросах
    Вы не можете прикреплять файлы к сообщениям
    Вы не можете скачивать файлы