BitTorrentTracker PerecTracker.org
BitTorrentTracker PerecTracker.org
    
Регистрация  ·  Вход
 
 · 
Забыли пароль?

  • Как же так: Война Керри Пэкера / Howzat! Kerry Packer\'s War (Даина Рейд / Daina Reid) [2012, Австралия, драма, HDTVRip] MVO

    Ответить на тему
     
    Автор Сообщение

    Light

    Создавать темы 18-Июл-2015 03:53

           

    [Цитировать]

    Как же так: Война Керри Пэкера / Howzat! Kerry Packer's War
    Страна: Австралия
    Жанр: драма
    Год выпуска: 2012
    Продолжительность: 01:26:40 + 01:25:58
    Перевод: Профессиональный (многоголосый закадровый)
    Cубтитры: нет
    Режиссер: Даина Рейд / Daina Reid
    В ролях: Лейчи Халм, Абе Форсайт, Дамон Гамо, Брендан Коуэлл, Мэттью Ле Невез, Клэйтон Уотсон, Крэйг Холл, Ричард Дейвис, Николас Купер, Хамиш Майкл
    Описание: Фильм рассказывает о жизни известного австралийского медиа-магната, одного из самых крупных игроков в мире.
    Доп. информация: За исходник спасибо Romanok8691
    Сэмпл: https://yadi.sk/i/keOriCjShpLqo
    Качество видео: HDTVRip
    Формат видео: AVI
    Видео: 720x400 (1.80:1), 25 fps, XviD build 50 ~2214 kbps avg, 0.31 bit/pixel
    Аудио: 48 kHz, AC3 Dolby Digital, 2/0 (L,R) ch, ~192 kbps

    MediaInfo

    Как же так- Война Керри Паркера\Как же так Война Керри Паркера (01 серия).avi
    Format : AVI
    Format/Info : Audio Video Interleave
    File size : 1.46 GiB
    Duration : 1h 26mn
    Overall bit rate : 2 417 Kbps
    Movie name : Как же так Война Керри Паркера (01 серия)
    Director : by Edich2
    Writing application : VirtualDubMod 1.5.10.3 | www.virtualdub-fr.org || (build 2550/release)
    Comment : RuTracker.org
    Video
    ID : 0
    Format : MPEG-4 Visual
    Format profile : Advanced Simple@L5
    Format settings, BVOP : 1
    Format settings, QPel : No
    Format settings, GMC : No warppoints
    Format settings, Matrix : Default (MPEG)
    Codec ID : XVID
    Codec ID/Hint : XviD
    Duration : 1h 26mn
    Bit rate : 2 215 Kbps
    Width : 720 pixels
    Height : 400 pixels
    Display aspect ratio : 16:9
    Frame rate : 25.000 fps
    Color space : YUV
    Chroma subsampling : 4:2:0
    Bit depth : 8 bits
    Scan type : Progressive
    Compression mode : Lossy
    Bits/(Pixel*Frame) : 0.308
    Stream size : 1.34 GiB (92%)
    Writing library : XviD 1.2.1 (UTC 2008-12-04)
    Audio
    ID : 1
    Format : AC-3
    Format/Info : Audio Coding 3
    Mode extension : CM (complete main)
    Format settings, Endianness : Big
    Codec ID : 2000
    Duration : 1h 26mn
    Bit rate mode : Constant
    Bit rate : 192 Kbps
    Channel(s) : 2 channels
    Channel positions : Front: L R
    Sampling rate : 48.0 KHz
    Bit depth : 16 bits
    Compression mode : Lossy
    Stream size : 119 MiB (8%)
    Alignment : Split accross interleaves
    Interleave, duration : 40 ms (1.00 video frame)
    Interleave, preload duration : 500 ms

    Скриншоты

    ДОБАВЛЕНА ВТОРАЯ СЕРИЯ.
    Скачать .torrent

    Скачать торрент-файл бесплатно и на максимальной скорости!

    Как скачивать? · Что такое торрент? · Рейтинг и ограничения

    !ВНИМАНИЕ!
    Сайт не распространяет и не хранит электронные версии произведений, а занимается лишь лишь предоставлением доступа к создаваемому пользователями каталогу ссылок на торрент-файлы, которые содержат только списки хеш-сумм, убедительная просьба с жалобами обращаться напрямую к пользователю. Файлы для обмена на трекере предоставлены пользователями сайта, и администрация не несёт ответственности за их содержание. Просьба не заливать файлы, защищенные авторскими правами, а также файлы нелегального содержания!


    _________________
    [Профиль] [ЛС]
    Показать сообщения:    
    Ответить на тему

    Текущее время: Сегодня, в 22:39

    Часовой пояс: GMT + 2



    Вы не можете начинать темы
    Вы не можете отвечать на сообщения
    Вы не можете редактировать свои сообщения
    Вы не можете удалять свои сообщения
    Вы не можете голосовать в опросах
    Вы не можете прикреплять файлы к сообщениям
    Вы не можете скачивать файлы