BitTorrentTracker PerecTracker.org
BitTorrentTracker PerecTracker.org
    
Регистрация  ·  Вход
 
 · 
Забыли пароль?

  • Улица доктора Кэссимло / Dr. Qassimlu Street / Shaqami Dr Qassimlu (Фати Мизраян / Fathy Mirzaeian) [2013, Ирак, Великобритания, мелодрама, DVB-AVC] DVO (Kino Polska)

    Ответить на тему
     
    Автор Сообщение

    Light

    Создавать темы 17-Июл-2015 23:41

           

    [Цитировать]

    Улица доктора Кэссимло
    Dr. Qassimlu Street-Страна: Ирак, Великобритания
    Жанр: мелодрама
    Год выпуска: 2013
    Продолжительность: 01:27:13Перевод: Профессиональный (двухголосый закадровый) по заказу Kino Polska на производственно-технической базе Студии "Акцент"
    Cубтитры: нет
    Режиссер: Фати Мизраян / Fathy Mirzaeian
    В ролях: Розин Фейзулапур / Rozhin Feizulapoor (Hiro), Фархад Амини / Farhad Amini (Hawar), Резгар Мохаммади / Rezgar Mohammadi
    Описание: Ночью, во время расклеивания прокламаций и стараясь скрыться от "Летучих бригад", Авар сталкивается с Хиро, помогшей ему избежать встречи с полицией. В ней он находит родственную душу, страстно желающую свободы и самовыражения, невозможные при диктатуре…
    Доп. информация: Filmbox Arthouse IPTV

    Качество видео: DVB-AVC
    Формат видео: MKV
    Видео: AVC (H.264), 720x576@1024x576 (16:9), 25 fps, ~537 kbps avg, 0.057 bit/pixel
    Аудио: MPEG Audio 2, 2 ch, 48 kHz, ~128.00 kbps avg

    MediaInfo

    ОбщееУникальный идентификатор : 203043010914323516372609352751967842743 (0x98C0A956380135C6BFD9BBC85EC331B7)Полное имя : F:\My Torrents 3\[apreder]Dr.Qassimlu_Street(2013)DVB.mkvФормат : MatroskaВерсия формата : Version 2Размер файла : 423 МбайтПродолжительность : 1 ч. 27 м.Общий поток : 679 Кбит/секДата кодирования : UTC 2015-07-17 09:33:05Программа кодирования : mkvmerge v8.1.0 ('Psychedelic Postcard') 64bitБиблиотека кодирования : libebml v1.3.1 + libmatroska v1.4.2Attachements : cover.jpg / cover_small.jpg
    ВидеоИдентификатор : 2Формат : AVCФормат/Информация : Advanced Video CodecПрофиль формата : Main@L3Параметр CABAC формата : ДаПараметр ReFrames формата : 3 кадраИдентификатор кодека : V_MPEG4/ISO/AVCПродолжительность : 1 ч. 27 м.Битрейт : 537 Кбит/секШирина : 720 пикселейВысота : 576 пикселейСоотношение сторон : 16:9Соотношение сторон в оригинале : 16:9Режим частоты кадров : ПостоянныйЧастота кадров : 22,727 кадра/секЧастота кадров в оригинале : 25,000 кадров/секСтандарт вещания : ComponentЦветовое пространство : YUVСубдискретизация насыщенности : 4:2:0Битовая глубина : 8 битТип развёртки : ЧересстрочнаяПорядок развёртки : Верхнее поле первоеБит/(Пиксели*Кадры) : 0.057Размер потока : 335 Мбайт (79%)Default : ДаForced : Нетcolour_range : LimitedОсновные цвета : BT.601 PALХарактеристики трансфера : BT.470 System B, BT.470 System GКоэффициенты матрицы : BT.601
    АудиоИдентификатор : 1Формат : MPEG AudioВерсия формата : Version 1Профиль формата : Layer 2Идентификатор кодека : A_MPEG/L2Идентификатор кодека/Подсказка : MP2Продолжительность : 1 ч. 27 м.Вид битрейта : ПостоянныйБитрейт : 128 Кбит/секКаналы : 2 каналаЧастота : 48,0 КГцМетод сжатия : С потерямиЗадержка видео : -9 мс.Размер потока : 79,9 Мбайт (19%)Язык : RussianDefault : ДаForced : Нет

    Скриншот c названием фильма

    Скриншоты

    Резервные скриншоты


    -[2'471]
    Скачать .torrent

    Скачать торрент-файл бесплатно и на максимальной скорости!

    Как скачивать? · Что такое торрент? · Рейтинг и ограничения

    !ВНИМАНИЕ!
    Сайт не распространяет и не хранит электронные версии произведений, а занимается лишь лишь предоставлением доступа к создаваемому пользователями каталогу ссылок на торрент-файлы, которые содержат только списки хеш-сумм, убедительная просьба с жалобами обращаться напрямую к пользователю. Файлы для обмена на трекере предоставлены пользователями сайта, и администрация не несёт ответственности за их содержание. Просьба не заливать файлы, защищенные авторскими правами, а также файлы нелегального содержания!


    _________________
    [Профиль] [ЛС]
    Показать сообщения:    
    Ответить на тему

    Текущее время: Сегодня, в 02:57

    Часовой пояс: GMT + 2



    Вы не можете начинать темы
    Вы не можете отвечать на сообщения
    Вы не можете редактировать свои сообщения
    Вы не можете удалять свои сообщения
    Вы не можете голосовать в опросах
    Вы не можете прикреплять файлы к сообщениям
    Вы не можете скачивать файлы