BitTorrentTracker PerecTracker.org
BitTorrentTracker PerecTracker.org
    
Регистрация  ·  Вход
 
 · 
Забыли пароль?

  • Камни на валу / Камни на шанец / Kamienie na szaniec (Роберт Глиньский / Robert Glinski) [2014, Польша, военная драма, экранизация, HDRip] VO (Project Web Money) + Original Pol

    Ответить на тему
     
    Автор Сообщение

    Light

    Создавать темы 17-Июл-2015 15:17

           

    [Цитировать]

    Камни на валу / Камни на шанец / Kamienie na szaniec
    Страна: Польша
    Жанр: военная драма, экранизация
    Год выпуска: 2014
    Продолжительность: 01:51:40
    Перевод: Одноголосый закадровый Project_Web_Money по переводу Professor
    Cубтитры: нет
    Оригинальная аудиодорожка: польский
    Режиссер: Роберт Глиньский / Robert Glinski
    В ролях: Томаш Жентек, Марцель Сабат, Камиль Шептицкий, Войцех Желинский, Анджей Хыра, Данута Стэнка, Ольгерд Лукашевич, Марьян Дзендзель, Филип Плавяк, Мариуш Якусь
    Описание: Экранизация одноименного романа писателя Александра Каминского. Трое друзей - Алек, Зоська и Рыжий, скауты, выпускники средней школы в Варшаве, строят амбициозные планы на будущее, которые прерывает сентябрь 1939 года. Они вступают вo взрослую жизнь в драматическое время, которое ставит их перед выбором - выжить любой ценой или присоединиться к борцам за свободу родины, рискуя всем. Воспитанные в духе патриотизма, они решают бороться, становятся солдатами и хоть каждый день сталкиваются со смертью, но даже в это жестокое время умеют жить полной жизнью. Сражаются самоотверженно и уходят "как камни, брошенные Богом на шанец", оставляя после себя уроки большой дружбы, чести и любви к Родине.

    Сэмпл: http://multi-up.com/1058735
    Качество видео: HDRip
    Формат видео: AVI
    Видео: XviD, 720x304 (2.35:1), 23.976 fps, 2071 kbps avg, 0.395 bit/pixel
    Аудио: 48 kHz, AC3 Dolby Digital, 2/0 (L,R) ch, ~192 kbps Project_Web_Money
    Аудио 2: 48 kHz, AC3 Dolby Digital, 3/2 (L,C,R,l,r) + LFE ch, ~448 kbps original

    MediaInfo

    Камни_на_валу_VO_Project_Web_Money.avi
    Формат : AVI
    Формат/Информация : Audio Video Interleave
    Профиль формата : OpenDML
    Размер файла : 2,13 Гбайт
    Продолжительность : 1 ч. 51 м.
    Общий поток : 2729 Кбит/сек
    Программа кодирования : VirtualDubModRus 1.5.10.2 (build 2542/release)
    Библиотека кодирования : VirtualDubMod build 2542/release
    Видео
    Идентификатор : 0
    Формат : MPEG-4 Visual
    Профиль формата : Advanced Simple@L4
    Параметр BVOP формата : 2
    Параметр QPel формата : Нет
    Параметр GMC формата : Без точки перехода
    Параметр матрицы формата : Default (H.263)
    Идентификатор кодека : DIVX
    Идентификатор кодека/Информация : Project Mayo
    Идентификатор кодека/Подсказка : DivX 4
    Продолжительность : 1 ч. 51 м.
    Битрейт : 2091 Кбит/сек
    Ширина : 720 пикс.
    Высота : 304 пикс.
    Соотношение сторон : 2,35:1
    Частота кадров : 23,976 кадр/сек
    Цветовое пространство : YUV
    Подвыборка цветности : 4:2:0
    Битовая глубина : 8 бит
    Тип развёртки : Прогрессивная
    Метод сжатия : С потерями
    Бит/(Пиксели*Кадры) : 0.395
    Размер потока : 1,62 Гбайт (76%)
    Библиотека кодирования : XviD 64
    Аудио #1
    Идентификатор : 1
    Формат : AC-3
    Формат/Информация : Audio Coding 3
    Расширение режима : CM (complete main)
    Идентификатор кодека : 2000
    Продолжительность : 1 ч. 51 м.
    Вид битрейта : Постоянный
    Битрейт : 192 Кбит/сек
    Каналы : 2 канала
    Расположение каналов : Front: L R
    Частота : 48,0 КГц
    Битовая глубина : 16 бит
    Метод сжатия : С потерями
    Размер потока : 153 Мбайт (7%)
    Выравнивание : Разделение по промежуткам
    Продолжительность промежутка : 42 мс. (1,00 видеокадр)
    Время предзагрузки промежутка : 500 ms
    Аудио #2
    Идентификатор : 2
    Формат : AC-3
    Формат/Информация : Audio Coding 3
    Расширение режима : CM (complete main)
    Идентификатор кодека : 2000
    Продолжительность : 1 ч. 51 м.
    Вид битрейта : Постоянный
    Битрейт : 448 Кбит/сек
    Каналы : 6 каналов
    Расположение каналов : Front: L C R, Side: L R, LFE
    Частота : 48,0 КГц
    Битовая глубина : 16 бит
    Метод сжатия : С потерями
    Размер потока : 358 Мбайт (16%)
    Выравнивание : Разделение по промежуткам
    Продолжительность промежутка : 42 мс. (1,00 видеокадр)
    Время предзагрузки промежутка : 500 ms

    Скриншот c названием фильма

    Скриншоты

    Скачать .torrent

    Скачать торрент-файл бесплатно и на максимальной скорости!

    Как скачивать? · Что такое торрент? · Рейтинг и ограничения

    !ВНИМАНИЕ!
    Сайт не распространяет и не хранит электронные версии произведений, а занимается лишь лишь предоставлением доступа к создаваемому пользователями каталогу ссылок на торрент-файлы, которые содержат только списки хеш-сумм, убедительная просьба с жалобами обращаться напрямую к пользователю. Файлы для обмена на трекере предоставлены пользователями сайта, и администрация не несёт ответственности за их содержание. Просьба не заливать файлы, защищенные авторскими правами, а также файлы нелегального содержания!


    _________________
    [Профиль] [ЛС]
    Показать сообщения:    
    Ответить на тему

    Текущее время: Сегодня, в 09:59

    Часовой пояс: GMT + 2



    Вы не можете начинать темы
    Вы не можете отвечать на сообщения
    Вы не можете редактировать свои сообщения
    Вы не можете удалять свои сообщения
    Вы не можете голосовать в опросах
    Вы не можете прикреплять файлы к сообщениям
    Вы не можете скачивать файлы