BitTorrentTracker PerecTracker.org
BitTorrentTracker PerecTracker.org
    
Регистрация  ·  Вход
 
 · 
Забыли пароль?

  • Хоббит: Коллекция / The Hobbit: Collection (Питер Джексон) [2012-2014 , Фэнтези, приключения, экранизация , BluRay

    Ответить на тему
     
    Автор Сообщение

    Враг Нароода

    Создавать темы 17-Июл-2015 13:15

           

    [Цитировать]

    ----Хоббит: Коллекция / The Hobbit: Collection ------Год выпуска: 2012-2014
    Выпущено: США, Новая Зеландия, 3Foot7, Metro-Goldwyn-Mayer (MGM), New Line Cinema, WingNut Films
    Жанр: Фэнтези, приключения, экранизация
    Продолжительность: 03:02:34, 03:06:34, 02:24:28
    Озвучка: Хоббит: Нежданное путешествие,Хоббит: Пустошь Смауга
    Аудио#1: Дубляж, Blu-ray CEE
    Аудио#2: Russian:Авторский Одноголосый закадровый, Ю. Сербин
    Аудио#3: Russian:Авторский Одноголосый закадровый, В. Горчаков
    Aудио#4: Ukrainian: Дубляж
    Субтитры: Russian (Forced), Russian, Ukrainian (Forced), Ukrainian, English
    Озвучка: Хоббит: Битва пяти воинств
    Аудио#1: Дубляж, Blu-ray CEE
    Аудио#2: Russian:Авторский Одноголосый закадровый, Ю. Сербин
    Aудио#3: Ukrainian: Дубляж
    Субтитры: Russian (Forced), Russian, Ukrainian (Forced), , English-- --Режиссер: Питер Джексон--В ролях: Мартин Фриман, Иэн МакКеллен, Ричард Армитедж, Джеймс Несбитт, Кен Стотт, Грэм МакТавиш, Уильям Кирчер, Стивен Хантер, Дин О`Горман, Эйдан Тёрнер, Джон Коллен, Питер Хэмблтон, Джед Брофи, Энди Серкис, Кейт Бланшетт, Элайджа Вуд, Хьюго Уивинг, Кристофер Ли, Иэн Холм, Марк Хэдлоу, Орландо Блум, Эванджелин Лилли, Бенедикт Камбербэтч, Люк Эванс, Ли Пейс, Стивен Фрай--Нежданное путешествие: Фильм повествует о путешествии Бильбо Бэггинса, который пускается в грандиозный поход, целью которого является отвоевание утраченного королевства гномов Эребор у зловещего дракона Смауга. Совершенно неожиданно с хоббитом налаживает контакт волшебник Гэндальф Серый. Так Бильбо находит себя, присоединяясь к компании тринадцати гномов, возглавляемых легендарным воином, Торином Дубощитом. Их путешествие проляжет через Дикий Край, через предательские земли, населенные гоблинами и орками, смертоносными варгами и гигантскими пауками, народом, меняющим шкуры, и волшебниками.
    И хотя их цель находится на Востоке, среди пустошей Одинокой Горы, сначала им придется выбраться из туннелей гоблинов, где Бильбо встретит существо, которое изменит его жизнь навсегда… Голлума.
    Здесь, один на один с Голлумом, на берегу подземного озера, непритязательный Бильбо Бэггинс обнаружит не только скрытые в глубине души хитрость и отвагу, которые удивят даже его, но и завладеет «прелестным» колечком Голлума, которое обладает нежданными и полезными свойствами… Простое золотое кольцо, c которым связана судьба всего Средиземья, нитями, о которых Бильбо не мог даже вообразить.
    Хоббит: Пустошь Смауга: Продолжение путешествия хоббита Бильбо Бэггинса, волшебника Гэндальфа и 13 отважных гномов. Их компания обязана завершить своё путешествие к Одинокой горе. Там они должны встретиться с величайшей опасностью из всех — созданием куда более ужасающим, чем все их прошлые противники, которое проверит на прочность не только их мужество, но крепость их дружбы и правильность выбранного пути, — драконом Смаугом. Хоббит: Битва пяти воинств:Когда отряд из тринадцати гномов нанимал хоббита Бильбо Бэгинса в качестве взломщика и четырнадцатого, «счастливого», участника похода к Одинокой горе, Бильбо полагал, что его приключения закончатся, когда он выполнит свою задачу — найдет сокровище, которое так необходимо предводителю гномов Торину. Путешествие в Эребор, захваченное драконом Смаугом королевство гномов, оказалось еще более опасным, чем предполагали гномы и даже Гэндальф — мудрый волшебник, протянувший Торину и его отряду руку помощи.
    В погоню за гномами устремилась армия орков, ведомых пробудившимся в руинах древним злом, а эльфы и люди, с которыми Бильбо и его товарищам пришлось иметь дело во время путешествия и которые пострадали от последствий желания гномов вернуть свой дом, предъявили права на щедрое вознаграждение — часть сокровищ Одинокой горы. Скоро неподалеку от Одинокой горы встретятся пять армий, и лишь кровопролитная битва определит результаты смелого гномьего похода.
    ----Хоббит: Нежданное путешествие (Расширенная Версия), Хоббит: Пустошь Смауга (Расширенная Версия)
    Качество : BluRay 1080p
    Формат: MKV
    Видео кодек: H264
    Видео: MPEG-4 AVC,14.0Мбит/сек-12.5Мбит/сек,1920х800(2.40),в 23.976кадр/сек,AVC(High@L4.1)(CABAC/5 Ref Frames)
    Аудио Кодек:AC3
    Аудио #1:AC3 , 640 Kbps, 48.0 KHz, 6 ch- -Дубляж, Blu-ray CEE
    Аудио #2: AC3, 640Kbps, 48.0 KHz, 6 ch - -Авторский Ю. Сербин
    Аудио #3: AC3, 640 Kbps, 48.0 KHz, 6 ch - - Авторский В. Горчаков
    Аудио #4: AC3, 640Kbps, 48.0 KHz, 6 ch - - Ukrainian: Дубляж
    Аудио #5: AC3, 640 Kbps, 48.0 KHz,6 ch - - English
    Хоббит: Битва пяти воинств
    Качество : BluRay 1080p
    Формат: MKV
    Видео кодек: H264
    Видео: MPEG-4 AVC,21.5Мбит/сек,1920х1080(16.9),в 23.976кадр/сек,AVC(High@L4.1)(CABAC/2 Ref Frames)
    Аудио Кодек:AC3
    Аудио #1:AC3 , 640 Kbps, 48.0 KHz, 6 ch- -Дубляж, Blu-ray CEE
    Аудио #2: AC3, 640Kbps, 48.0 KHz, 6 ch - -Авторский Ю. Сербин
    Аудио #3: AC3, 640Kbps, 48.0 KHz, 6 ch - - Ukrainian: Дубляж
    Аудио #4: AC3, 640 Kbps, 48.0 KHz,6 ch - - English--

    MediaInfo Хоббит: Нежданное путешествие (Расширенная Версия)

    Общее
    Уникальный идентификатор : 208212071122205368215975200516295417595 (0x9CA42FAE7458669DAD21AD95BE8CDEFB)
    Полное имя : D:\ФАНТАСТИКА\ХОББИТ КОЛЛЕКЦИЯ\The_Hobbit_Сollection_2012_-_2014_BluRay_DD5.1_1080p_N.B_3xRus_Ukr_Eng\The_Hobbit_An._Unexpected_Journey_Extended_Cut_2012_BluRay_1080p_N.B_3xRus_Ukr_Eng.mkv
    Формат : Matroska
    Версия формата : Version 4 / Version 2
    Размер файла : 22,3 Гбайт
    Продолжительность : 3 ч. 2 м.
    Общий поток : 17,5 Мбит/сек
    Название фильма : The Hobbit: An Unexpected Journey (2012) - Release for HDCLUB
    Дата кодирования : UTC 2015-07-15 15:13:08
    Программа кодирования : mkvmerge v8.1.0 ('Psychedelic Postcard') 64bit
    Библиотека кодирования : libebml v1.3.1 + libmatroska v1.4.2
    Attachements : cover.jpg
    DURATION : 03:02:31.360000000
    NUMBER_OF_FRAMES : 342230
    NUMBER_OF_BYTES : 876108800
    _STATISTICS_WRITING_APP : mkvmerge v8.1.0 ('Psychedelic Postcard') 64bit
    _STATISTICS_WRITING_DATE_UTC : 2015-07-15 15:13:08
    _STATISTICS_TAGS : BPS DURATION NUMBER_OF_FRAMES NUMBER_OF_BYTES
    Видео
    Идентификатор : 1
    Формат : AVC
    Формат/Информация : Advanced Video Codec
    Профиль формата : High@L4.1
    Параметр CABAC формата : Да
    Параметр ReFrames формата : 5 кадров
    Идентификатор кодека : V_MPEG4/ISO/AVC
    Продолжительность : 3 ч. 2 м.
    Битрейт : 14,0 Мбит/сек
    Ширина : 1920 пикселей
    Высота : 800 пикселей
    Соотношение сторон : 2,40:1
    Режим частоты кадров : Постоянный
    Частота кадров : 23,976 кадра/сек
    Цветовое пространство : YUV
    Субдискретизация насыщенности : 4:2:0
    Битовая глубина : 8 бит
    Тип развёртки : Прогрессивная
    Бит/(Пиксели*Кадры) : 0.379
    Размер потока : 17,8 Гбайт (80%)
    Заголовок : Release for HDCLUB
    Библиотека кодирования : x264 core 138 r2358 9e941d1
    Настройки программы : cabac=1 / ref=5 / deblock=1:-3:-3 / analyse=0x3:0x133 / me=tesa / subme=10 / psy=1 / psy_rd=0.95:0.00 / mixed_ref=1 / me_range=24 / chroma_me=1 / trellis=2 / 8x8dct=1 / cqm=0 / deadzone=21,11 / fast_pskip=0 / chroma_qp_offset=-2 / threads=12 / lookahead_threads=2 / sliced_threads=0 / nr=0 / decimate=0 / interlaced=0 / bluray_compat=0 / constrained_intra=0 / bframes=8 / b_pyramid=2 / b_adapt=2 / b_bias=0 / direct=3 / weightb=1 / open_gop=0 / weightp=2 / keyint=240 / keyint_min=23 / scenecut=40 / intra_refresh=0 / rc_lookahead=90 / rc=crf / mbtree=0 / crf=16.0 / qcomp=0.60 / qpmin=0 / qpmax=69 / qpstep=4 / vbv_maxrate=62500 / vbv_bufsize=78125 / crf_max=0.0 / nal_hrd=none / ip_ratio=1.20 / pb_ratio=1.10 / aq=1:0.80
    Язык : English
    Default : Да
    Forced : Нет
    Аудио #1
    Идентификатор : 8
    Формат : AC-3
    Формат/Информация : Audio Coding 3
    Расширение режима : CM (complete main)
    Параметр Endianness формата : Big
    Идентификатор кодека : A_AC3
    Продолжительность : 3 ч. 2 м.
    Вид битрейта : Постоянный
    Битрейт : 640 Кбит/сек
    Каналы : 6 каналов
    Расположение каналов : Front: L C R, Side: L R, LFE
    Частота : 48,0 КГц
    Метод сжатия : С потерями
    Размер потока : 836 Мбайт (4%)
    Default : Да
    Forced : Нет
    Аудио #2
    Идентификатор : 9
    Формат : AC-3
    Формат/Информация : Audio Coding 3
    Расширение режима : CM (complete main)
    Параметр Endianness формата : Big
    Идентификатор кодека : A_AC3
    Продолжительность : 3 ч. 2 м.
    Вид битрейта : Постоянный
    Битрейт : 640 Кбит/сек
    Каналы : 6 каналов
    Расположение каналов : Front: L C R, Side: L R, LFE
    Частота : 48,0 КГц
    Метод сжатия : С потерями
    Размер потока : 836 Мбайт (4%)
    Default : Нет
    Forced : Нет
    Аудио #3
    Идентификатор : 10
    Формат : AC-3
    Формат/Информация : Audio Coding 3
    Расширение режима : CM (complete main)
    Параметр Endianness формата : Big
    Идентификатор кодека : A_AC3
    Продолжительность : 3 ч. 2 м.
    Вид битрейта : Постоянный
    Битрейт : 640 Кбит/сек
    Каналы : 6 каналов
    Расположение каналов : Front: L C R, Side: L R, LFE
    Частота : 48,0 КГц
    Метод сжатия : С потерями
    Размер потока : 836 Мбайт (4%)
    Default : Нет
    Forced : Нет
    Аудио #4
    Идентификатор : 11
    Формат : AC-3
    Формат/Информация : Audio Coding 3
    Расширение режима : CM (complete main)
    Параметр Endianness формата : Big
    Идентификатор кодека : A_AC3
    Продолжительность : 3 ч. 2 м.
    Вид битрейта : Постоянный
    Битрейт : 640 Кбит/сек
    Каналы : 6 каналов
    Расположение каналов : Front: L C R, Side: L R, LFE
    Частота : 48,0 КГц
    Метод сжатия : С потерями
    Размер потока : 836 Мбайт (4%)
    Default : Нет
    Forced : Нет
    Аудио #5
    Идентификатор : 12
    Формат : AC-3
    Формат/Информация : Audio Coding 3
    Расширение режима : CM (complete main)
    Параметр Endianness формата : Big
    Идентификатор кодека : A_AC3
    Продолжительность : 3 ч. 2 м.
    Вид битрейта : Постоянный
    Битрейт : 640 Кбит/сек
    Каналы : 6 каналов
    Расположение каналов : Front: L C R, Side: L R, LFE
    Частота : 48,0 КГц
    Метод сжатия : С потерями
    Размер потока : 836 Мбайт (4%)
    Default : Нет
    Forced : Нет
    Текст #1
    Идентификатор : 2
    Формат : UTF-8
    Идентификатор кодека : S_TEXT/UTF8
    Идентификатор кодека/Информация : UTF-8 Plain Text
    Заголовок : forced
    Язык : Russian
    Default : Да
    Forced : Нет
    Текст #2
    Идентификатор : 3
    Формат : UTF-8
    Идентификатор кодека : S_TEXT/UTF8
    Идентификатор кодека/Информация : UTF-8 Plain Text
    Язык : Russian
    Default : Нет
    Forced : Нет
    Текст #3
    Идентификатор : 4
    Формат : UTF-8
    Идентификатор кодека : S_TEXT/UTF8
    Идентификатор кодека/Информация : UTF-8 Plain Text
    Заголовок : Blu-ray CEE
    Язык : Russian
    Default : Нет
    Forced : Нет
    Текст #4
    Идентификатор : 5
    Формат : UTF-8
    Идентификатор кодека : S_TEXT/UTF8
    Идентификатор кодека/Информация : UTF-8 Plain Text
    Язык : Ukrainian
    Default : Нет
    Forced : Нет
    Текст #5
    Идентификатор : 6
    Формат : UTF-8
    Идентификатор кодека : S_TEXT/UTF8
    Идентификатор кодека/Информация : UTF-8 Plain Text
    Язык : English
    Default : Нет
    Forced : Нет
    Текст #6
    Идентификатор : 7
    Формат : UTF-8
    Идентификатор кодека : S_TEXT/UTF8
    Идентификатор кодека/Информация : UTF-8 Plain Text
    Заголовок : SDH
    Язык : English
    Default : Нет
    Forced : Нет
    Меню
    00:00:00.000 : en:Prologue: The Fall of Erebor
    00:10:11.903 : en:"In a Hole in the Ground There Lived a Hobbit"
    00:14:08.723 : en:Very Old Friends
    00:17:27.255 : en:Mr. Baggins
    00:18:44.623 : en:An Unexpected Party
    00:23:16.604 : en:"Blunt the Knives"
    00:27:59.469 : en:A Map, A Key and A Contract
    00:36:04.871 : en:"Misty Mountains"
    00:41:17.266 : en:"...The World Ahead"
    00:46:30.830 : en:The Battle of Azanulbizar
    00:53:04.181 : en:Radagast the Brown
    00:58:07.651 : en:Trollshaws
    00:59:55.300 : en:Roast Mutton
    01:10:42.405 : en:A Troll-hoard
    01:15:01.831 : en:The Hill of Sorcery
    01:18:52.811 : en:Warg-scouts
    01:24:56.925 : en:Rivendell
    01:30:34.429 : en:A Short Rest
    01:34:10.603 : en:Moon Runes
    01:37:24.464 : en:The Defiler
    01:39:03.479 : en:The Last Homely House
    01:41:40.803 : en:The White Council
    01:50:22.533 : en:"Why the Halfling?"
    01:52:59.773 : en:Over Hill
    01:59:06.348 : en:Under Hill
    02:03:57.513 : en:The Great Goblin
    02:09:51.575 : en:Riddles in the Dark
    02:23:21.426 : en:Biter and Beater
    02:25:18.877 : en:The Ring
    02:26:31.199 : en:Escape from Goblin Town
    02:30:52.919 : en:The Pity of Bilbo
    02:33:00.546 : en:"Home is Behind..."
    02:35:52.593 : en:Out of the Frying Pan...
    02:46:51.210 : en:A Good Omen
    02:52:21.373 : en:Credits
    --

    MediaInfo Хоббит: Пустошь Смауга (Расширенная Версия)

    Общее
    Уникальный идентификатор : 253801852320025217982083846852731098008 (0xBEF0756F7CB3872694CF303038CA5398)
    Полное имя : D:\ФАНТАСТИКА\ХОББИТ КОЛЛЕКЦИЯ\The_Hobbit_Сollection_2012_-_2014_BluRay_DD5.1_1080p_N.B_3xRus_Ukr_Eng\The_Hobbit_The_Desolation_of_Smaug_Extended_Edition_2013_BluRay_1080p_N.B_3xRus_Ukr_Eng.mkv
    Формат : Matroska
    Версия формата : Version 4 / Version 2
    Размер файла : 20,9 Гбайт
    Продолжительность : 3 ч. 6 м.
    Общий поток : 16,1 Мбит/сек
    Дата кодирования : UTC 2015-07-14 22:08:55
    Программа кодирования : mkvmerge v8.1.0 ('Psychedelic Postcard') 64bit
    Библиотека кодирования : libebml v1.3.1 + libmatroska v1.4.2
    DURATION : 03:06:35.872000000
    NUMBER_OF_FRAMES : 349871
    NUMBER_OF_BYTES : 895669760
    _STATISTICS_WRITING_APP : mkvmerge v8.1.0 ('Psychedelic Postcard') 64bit
    _STATISTICS_WRITING_DATE_UTC : 2015-07-14 22:08:55
    _STATISTICS_TAGS : BPS DURATION NUMBER_OF_FRAMES NUMBER_OF_BYTES
    Видео
    Идентификатор : 1
    Формат : AVC
    Формат/Информация : Advanced Video Codec
    Профиль формата : High@L4.1
    Параметр CABAC формата : Да
    Параметр ReFrames формата : 5 кадров
    Идентификатор кодека : V_MPEG4/ISO/AVC
    Продолжительность : 3 ч. 6 м.
    Битрейт : 12,5 Мбит/сек
    Ширина : 1920 пикселей
    Высота : 800 пикселей
    Соотношение сторон : 2,40:1
    Режим частоты кадров : Постоянный
    Частота кадров : 23,976 кадра/сек
    Цветовое пространство : YUV
    Субдискретизация насыщенности : 4:2:0
    Битовая глубина : 8 бит
    Тип развёртки : Прогрессивная
    Бит/(Пиксели*Кадры) : 0.340
    Размер потока : 16,3 Гбайт (78%)
    Библиотека кодирования : x264 core 142 r2479kMod dd79a61
    Настройки программы : cabac=1 / ref=5 / deblock=1:-3:-3 / analyse=0x3:0x133 / me=umh / subme=11 / psy=1 / fade_compensate=0.00 / psy_rd=1.05:0.00 / mixed_ref=1 / me_range=64 / chroma_me=1 / trellis=2 / 8x8dct=1 / cqm=0 / deadzone=21,11 / fast_pskip=0 / chroma_qp_offset=-2 / threads=12 / lookahead_threads=2 / sliced_threads=0 / nr=0 / decimate=0 / interlaced=0 / bluray_compat=0 / constrained_intra=0 / fgo=0 / bframes=7 / b_pyramid=2 / b_adapt=2 / b_bias=0 / direct=3 / weightb=1 / open_gop=0 / weightp=2 / keyint=250 / keyint_min=23 / scenecut=40 / intra_refresh=0 / rc_lookahead=40 / rc=crf / mbtree=0 / crf=16.4000 / qcomp=0.75 / qpmin=0 / qpmax=69 / qpstep=4 / vbv_maxrate=50000 / vbv_bufsize=62500 / crf_max=0.0 / nal_hrd=none / filler=0 / ip_ratio=1.20 / pb_ratio=1.10 / aq=3:0.60
    Default : Нет
    Forced : Нет
    Цветовой диапазон : Limited
    Основные цвета : BT.709
    Характеристики трансфера : BT.709
    Коэффициенты матрицы : BT.709
    DURATION : 03:06:34.892000000
    NUMBER_OF_FRAMES : 268409
    NUMBER_OF_BYTES : 17992199220
    _STATISTICS_WRITING_APP : mkvmerge v8.1.0 ('Psychedelic Postcard') 64bit
    _STATISTICS_WRITING_DATE_UTC : 2015-07-14 22:08:55
    _STATISTICS_TAGS : BPS DURATION NUMBER_OF_FRAMES NUMBER_OF_BYTES
    Аудио #1
    Идентификатор : 9
    Формат : AC-3
    Формат/Информация : Audio Coding 3
    Расширение режима : CM (complete main)
    Параметр Endianness формата : Big
    Идентификатор кодека : A_AC3
    Продолжительность : 3 ч. 6 м.
    Вид битрейта : Постоянный
    Битрейт : 640 Кбит/сек
    Каналы : 6 каналов
    Расположение каналов : Front: L C R, Side: L R, LFE
    Частота : 48,0 КГц
    Метод сжатия : С потерями
    Размер потока : 854 Мбайт (4%)
    Default : Да
    Forced : Нет
    Аудио #2
    Идентификатор : 10
    Формат : AC-3
    Формат/Информация : Audio Coding 3
    Расширение режима : CM (complete main)
    Параметр Endianness формата : Big
    Идентификатор кодека : A_AC3
    Продолжительность : 3 ч. 6 м.
    Вид битрейта : Постоянный
    Битрейт : 640 Кбит/сек
    Каналы : 6 каналов
    Расположение каналов : Front: L C R, Side: L R, LFE
    Частота : 48,0 КГц
    Метод сжатия : С потерями
    Размер потока : 854 Мбайт (4%)
    Default : Нет
    Forced : Нет
    Аудио #3
    Идентификатор : 11
    Формат : AC-3
    Формат/Информация : Audio Coding 3
    Расширение режима : CM (complete main)
    Параметр Endianness формата : Big
    Идентификатор кодека : A_AC3
    Продолжительность : 3 ч. 6 м.
    Вид битрейта : Постоянный
    Битрейт : 640 Кбит/сек
    Каналы : 6 каналов
    Расположение каналов : Front: L C R, Side: L R, LFE
    Частота : 48,0 КГц
    Метод сжатия : С потерями
    Размер потока : 854 Мбайт (4%)
    Default : Нет
    Forced : Нет
    Аудио #4
    Идентификатор : 12
    Формат : AC-3
    Формат/Информация : Audio Coding 3
    Расширение режима : CM (complete main)
    Параметр Endianness формата : Big
    Идентификатор кодека : A_AC3
    Продолжительность : 3 ч. 6 м.
    Вид битрейта : Постоянный
    Битрейт : 640 Кбит/сек
    Каналы : 6 каналов
    Расположение каналов : Front: L C R, Side: L R, LFE
    Частота : 48,0 КГц
    Метод сжатия : С потерями
    Размер потока : 854 Мбайт (4%)
    Default : Нет
    Forced : Нет
    Аудио #5
    Идентификатор : 13
    Формат : AC-3
    Формат/Информация : Audio Coding 3
    Расширение режима : CM (complete main)
    Параметр Endianness формата : Big
    Идентификатор кодека : A_AC3
    Продолжительность : 3 ч. 6 м.
    Вид битрейта : Постоянный
    Битрейт : 640 Кбит/сек
    Каналы : 6 каналов
    Расположение каналов : Front: L C R, Side: L R, LFE
    Частота : 48,0 КГц
    Метод сжатия : С потерями
    Размер потока : 854 Мбайт (4%)
    Default : Нет
    Forced : Нет
    Текст #1
    Идентификатор : 2
    Формат : UTF-8
    Идентификатор кодека : S_TEXT/UTF8
    Идентификатор кодека/Информация : UTF-8 Plain Text
    Заголовок : Forced
    Язык : Russian
    Default : Да
    Forced : Нет
    Текст #2
    Идентификатор : 3
    Формат : UTF-8
    Идентификатор кодека : S_TEXT/UTF8
    Идентификатор кодека/Информация : UTF-8 Plain Text
    Заголовок : Full
    Язык : Russian
    Default : Нет
    Forced : Нет
    Текст #3
    Идентификатор : 4
    Формат : UTF-8
    Идентификатор кодека : S_TEXT/UTF8
    Идентификатор кодека/Информация : UTF-8 Plain Text
    Заголовок : Forced
    Язык : Ukrainian
    Default : Нет
    Forced : Нет
    Текст #4
    Идентификатор : 5
    Формат : UTF-8
    Идентификатор кодека : S_TEXT/UTF8
    Идентификатор кодека/Информация : UTF-8 Plain Text
    Заголовок : Full
    Язык : Ukrainian
    Default : Нет
    Forced : Нет
    Текст #5
    Идентификатор : 6
    Формат : UTF-8
    Идентификатор кодека : S_TEXT/UTF8
    Идентификатор кодека/Информация : UTF-8 Plain Text
    Заголовок : Full
    Язык : English
    Default : Нет
    Forced : Нет
    Текст #6
    Идентификатор : 7
    Формат : UTF-8
    Идентификатор кодека : S_TEXT/UTF8
    Идентификатор кодека/Информация : UTF-8 Plain Text
    Заголовок : SDH
    Язык : English
    Default : Нет
    Forced : Нет
    Текст #7
    Идентификатор : 8
    Формат : UTF-8
    Идентификатор кодека : S_TEXT/UTF8
    Идентификатор кодека/Информация : UTF-8 Plain Text
    Заголовок : SDH-Colored
    Язык : English
    Default : Нет
    Forced : Нет
    Меню
    00:00:00.000 : en:00:00:00.000
    00:07:33.411 : en:00:07:33.411
    00:12:00.303 : en:00:12:00.303
    00:12:59.445 : en:00:12:59.445
    00:15:55.371 : en:00:15:55.371
    00:20:56.922 : en:00:20:56.922
    00:23:15.436 : en:00:23:15.436
    00:25:52.676 : en:00:25:52.676
    00:29:59.256 : en:00:29:59.256
    00:38:14.042 : en:00:38:14.042
    00:46:43.843 : en:00:46:43.843
    00:49:46.317 : en:00:49:46.317
    00:53:19.530 : en:00:53:19.530
    00:55:10.224 : en:00:55:10.224
    00:58:07.859 : en:00:58:07.859
    01:08:42.327 : en:01:08:42.327
    01:12:22.338 : en:01:12:22.338
    01:15:45.708 : en:01:15:45.708
    01:19:10.162 : en:01:19:10.162
    01:22:46.837 : en:01:22:46.837
    01:25:09.688 : en:01:25:09.688
    01:28:07.741 : en:01:28:07.741
    01:31:15.553 : en:01:31:15.553
    01:36:02.757 : en:01:36:02.757
    01:37:35.892 : en:01:37:35.892
    01:40:35.404 : en:01:40:35.404
    01:45:16.519 : en:01:45:16.519
    01:48:44.476 : en:01:48:44.476
    01:50:31.750 : en:01:50:31.750
    01:52:36.541 : en:01:52:36.541
    01:53:08.448 : en:01:53:08.448
    01:59:16.358 : en:01:59:16.358
    02:07:11.833 : en:02:07:11.833
    02:07:39.110 : en:02:07:39.110
    02:09:22.672 : en:02:09:22.672
    02:12:48.586 : en:02:12:48.586
    02:22:00.846 : en:02:22:00.846
    02:22:43.430 : en:02:22:43.430
    02:23:17.923 : en:02:23:17.923
    02:24:56.396 : en:02:24:56.396
    02:26:45.088 : en:02:26:45.088
    02:29:18.825 : en:02:29:18.825
    02:33:12.975 : en:02:33:12.975
    02:34:57.622 : en:02:34:57.622
    02:36:13.155 : en:02:36:13.155
    02:37:45.956 : en:02:37:45.956
    02:39:08.831 : en:02:39:08.831
    02:41:39.940 : en:02:41:39.940
    02:44:06.003 : en:02:44:06.003
    02:51:16.683 : en:02:51:16.683
    02:56:05.555 : en:02:56:05.555
    --

    MediaInfo Хоббит: Битва пяти воинств

    Общее
    Уникальный идентификатор : 230900719176373489553081697774813908564 (0xADB5DC6587CF3F339D8FC5492A5D0E54)
    Полное имя : D:\ФАНТАСТИКА\ХОББИТ КОЛЛЕКЦИЯ\The_Hobbit_Сollection_2012_-_2014_BluRay_DD5.1_1080p_N.B_3xRus_Ukr_Eng\The_Hobbit_The_Battle_Of_The_Five_Armies_2014_BluRay_1080p_N.B_2xRus_Ukr_Eng.mkv
    Формат : Matroska
    Версия формата : Version 4 / Version 2
    Размер файла : 24,8 Гбайт
    Продолжительность : 2 ч. 24 м.
    Режим общего битрейта : Переменный
    Общий поток : 24,5 Мбит/сек
    Название фильма : Хоббит: Битва пяти воинств.2014.Сборка: ollan
    Дата кодирования : UTC 2015-07-16 16:39:18
    Программа кодирования : mkvmerge v8.1.0 ('Psychedelic Postcard') 64bit
    Библиотека кодирования : libebml v1.3.1 + libmatroska v1.4.2
    DURATION : 02:10:15.410000000
    NUMBER_OF_FRAMES : 1180
    NUMBER_OF_BYTES : 30766
    _STATISTICS_WRITING_APP : mkvmerge v8.1.0 ('Psychedelic Postcard') 64bit
    _STATISTICS_WRITING_DATE_UTC : 2015-07-16 16:39:18
    _STATISTICS_TAGS : BPS DURATION NUMBER_OF_FRAMES NUMBER_OF_BYTES
    Видео
    Идентификатор : 1
    Формат : AVC
    Формат/Информация : Advanced Video Codec
    Профиль формата : High@L4.1
    Параметр CABAC формата : Да
    Параметр ReFrames формата : 2 кадра
    Идентификатор кодека : V_MPEG4/ISO/AVC
    Продолжительность : 2 ч. 24 м.
    Вид битрейта : Переменный
    Битрейт : 21,5 Мбит/сек
    Ширина : 1920 пикселей
    Высота : 1080 пикселей
    Соотношение сторон : 16:9
    Режим частоты кадров : Постоянный
    Частота кадров : 23,976 кадра/сек
    Цветовое пространство : YUV
    Субдискретизация насыщенности : 4:2:0
    Битовая глубина : 8 бит
    Тип развёртки : Прогрессивная
    Бит/(Пиксели*Кадры) : 0.432
    Размер потока : 21,7 Гбайт (88%)
    Default : Да
    Forced : Нет
    Аудио #1
    Идентификатор : 6
    Формат : AC-3
    Формат/Информация : Audio Coding 3
    Расширение режима : CM (complete main)
    Параметр Endianness формата : Big
    Идентификатор кодека : A_AC3
    Продолжительность : 2 ч. 24 м.
    Вид битрейта : Постоянный
    Битрейт : 640 Кбит/сек
    Каналы : 6 каналов
    Расположение каналов : Front: L C R, Side: L R, LFE
    Частота : 48,0 КГц
    Метод сжатия : С потерями
    Размер потока : 661 Мбайт (3%)
    Default : Да
    Forced : Нет
    Аудио #2
    Идентификатор : 7
    Формат : AC-3
    Формат/Информация : Audio Coding 3
    Расширение режима : CM (complete main)
    Параметр Endianness формата : Big
    Идентификатор кодека : A_AC3
    Продолжительность : 2 ч. 24 м.
    Вид битрейта : Постоянный
    Битрейт : 640 Кбит/сек
    Каналы : 6 каналов
    Расположение каналов : Front: L C R, Side: L R, LFE
    Частота : 48,0 КГц
    Метод сжатия : С потерями
    Размер потока : 661 Мбайт (3%)
    Default : Нет
    Forced : Нет
    Аудио #3
    Идентификатор : 8
    Формат : AC-3
    Формат/Информация : Audio Coding 3
    Расширение режима : CM (complete main)
    Параметр Endianness формата : Big
    Идентификатор кодека : A_AC3
    Продолжительность : 2 ч. 24 м.
    Вид битрейта : Постоянный
    Битрейт : 640 Кбит/сек
    Каналы : 6 каналов
    Расположение каналов : Front: L C R, Side: L R, LFE
    Частота : 48,0 КГц
    Метод сжатия : С потерями
    Размер потока : 661 Мбайт (3%)
    Default : Нет
    Forced : Нет
    Аудио #4
    Идентификатор : 9
    Формат : AC-3
    Формат/Информация : Audio Coding 3
    Расширение режима : CM (complete main)
    Параметр Endianness формата : Big
    Идентификатор кодека : A_AC3
    Продолжительность : 2 ч. 24 м.
    Вид битрейта : Постоянный
    Битрейт : 640 Кбит/сек
    Каналы : 6 каналов
    Расположение каналов : Front: L C R, Side: L R, LFE
    Частота : 48,0 КГц
    Метод сжатия : С потерями
    Размер потока : 661 Мбайт (3%)
    Default : Нет
    Forced : Нет
    Текст #1
    Идентификатор : 2
    Формат : PGS
    Режим смешивания : zlib
    Идентификатор кодека : S_HDMV/PGS
    Идентификатор кодека/Информация : Picture based subtitle format used on BDs/HD-DVDs
    Default : Да
    Forced : Нет
    Текст #2
    Идентификатор : 3
    Формат : PGS
    Режим смешивания : zlib
    Идентификатор кодека : S_HDMV/PGS
    Идентификатор кодека/Информация : Picture based subtitle format used on BDs/HD-DVDs
    Default : Нет
    Forced : Нет
    Текст #3
    Идентификатор : 4
    Формат : PGS
    Режим смешивания : zlib
    Идентификатор кодека : S_HDMV/PGS
    Идентификатор кодека/Информация : Picture based subtitle format used on BDs/HD-DVDs
    Default : Нет
    Forced : Нет
    Текст #4
    Идентификатор : 5
    Формат : PGS
    Режим смешивания : zlib
    Идентификатор кодека : S_HDMV/PGS
    Идентификатор кодека/Информация : Picture based subtitle format used on BDs/HD-DVDs
    Default : Нет
    Forced : Нет
    Текст #5
    Идентификатор : 10
    Формат : UTF-8
    Идентификатор кодека : S_TEXT/UTF8
    Идентификатор кодека/Информация : UTF-8 Plain Text
    Заголовок : Full
    Язык : Russian
    Default : Нет
    Forced : Нет
    Текст #6
    Идентификатор : 11
    Формат : UTF-8
    Идентификатор кодека : S_TEXT/UTF8
    Идентификатор кодека/Информация : UTF-8 Plain Text
    Default : Нет
    Forced : Нет
    Текст #7
    Идентификатор : 12
    Формат : UTF-8
    Идентификатор кодека : S_TEXT/UTF8
    Идентификатор кодека/Информация : UTF-8 Plain Text
    Default : Нет
    Forced : Нет
    Текст #8
    Идентификатор : 13
    Формат : UTF-8
    Идентификатор кодека : S_TEXT/UTF8
    Идентификатор кодека/Информация : UTF-8 Plain Text
    Default : Нет
    Forced : Нет
    Текст #9
    Идентификатор : 14
    Формат : UTF-8
    Идентификатор кодека : S_TEXT/UTF8
    Идентификатор кодека/Информация : UTF-8 Plain Text
    Default : Нет
    Forced : Нет
    Текст #10
    Идентификатор : 15
    Формат : UTF-8
    Идентификатор кодека : S_TEXT/UTF8
    Идентификатор кодека/Информация : UTF-8 Plain Text
    Default : Нет
    Forced : Нет
    Текст #11
    Идентификатор : 16
    Формат : UTF-8
    Идентификатор кодека : S_TEXT/UTF8
    Идентификатор кодека/Информация : UTF-8 Plain Text
    Default : Нет
    Forced : Нет
    Текст #12
    Идентификатор : 17
    Формат : UTF-8
    Идентификатор кодека : S_TEXT/UTF8
    Идентификатор кодека/Информация : UTF-8 Plain Text
    Default : Нет
    Forced : Нет
    Текст #13
    Идентификатор : 18
    Формат : UTF-8
    Идентификатор кодека : S_TEXT/UTF8
    Идентификатор кодека/Информация : UTF-8 Plain Text
    Default : Нет
    Forced : Нет
    Текст #14
    Идентификатор : 19
    Формат : UTF-8
    Идентификатор кодека : S_TEXT/UTF8
    Идентификатор кодека/Информация : UTF-8 Plain Text
    Default : Нет
    Forced : Нет
    --

    Скриншоты Хоббит: Нежданное путешествие (Расширенная Версия) / The Hobbit: An Unexpected Journey

    --

    Скриншоты Хоббит: Пустошь Смауга (Расширенная Версия)

    --

    Скриншоты Хоббит: Битва пяти воинств

    --Хоббит: Нежданное путешествие (Расширенная Версия) / The Hobbit: An Unexpected Journey--Хоббит: Пустошь Смауга (Расширенная Версия) --Хоббит: Битва пяти воинств ------Релиз от: Nikolai.Baranov --------
    Скачать .torrent

    Скачать торрент-файл бесплатно и на максимальной скорости!

    Как скачивать? · Что такое торрент? · Рейтинг и ограничения

    !ВНИМАНИЕ!
    Сайт не распространяет и не хранит электронные версии произведений, а занимается лишь лишь предоставлением доступа к создаваемому пользователями каталогу ссылок на торрент-файлы, которые содержат только списки хеш-сумм, убедительная просьба с жалобами обращаться напрямую к пользователю. Файлы для обмена на трекере предоставлены пользователями сайта, и администрация не несёт ответственности за их содержание. Просьба не заливать файлы, защищенные авторскими правами, а также файлы нелегального содержания!


    _________________

    Легко быть оптимистом, когда судьба не валит с ног тяжелыми ударами, а лишь иногда легонько шлепает по заднице.
    [Профиль] [ЛС]
    Показать сообщения:    
    Ответить на тему

    Текущее время: Сегодня, в 20:37

    Часовой пояс: GMT + 2



    Вы не можете начинать темы
    Вы не можете отвечать на сообщения
    Вы не можете редактировать свои сообщения
    Вы не можете удалять свои сообщения
    Вы не можете голосовать в опросах
    Вы не можете прикреплять файлы к сообщениям
    Вы не можете скачивать файлы