BitTorrentTracker PerecTracker.org
BitTorrentTracker PerecTracker.org
    
Регистрация  ·  Вход
 
 · 
Забыли пароль?

  • Эмануэль и правда о рыбах / The Truth About Emanuel (Франческа Грегорини / Francesca Gregorini) [2013, США, триллер, драма, BDRip] DVO (IVI)

    Ответить на тему
     
    Автор Сообщение

    Light

    Создавать темы 16-Июл-2015 01:29

           

    [Цитировать]

    Эмануэль и правда о рыбах / The Truth About Emanuel
    Страна: США
    Жанр: триллер, драма
    Год выпуска: 2013
    Продолжительность: 01:35:43
    Перевод: Профессиональный (двухголосый закадровый) - IVI
    Cубтитры: нет

    Режиссер: Франческа Грегорини / Francesca Gregorini
    В ролях: Кая Скоделарио, Джессика Бил, Альфред Молина, Фрэнсис О’Коннор, Анайрин Барнард, Джимми Симпсон, Габриэлла Диас,, Спенсер Гаррет, Сэм Джагер, Кевин МакКоркл, Сиена Перес, Уильям Филип, Энн Рэмси, Вульф Росс, Джонатан Шмок, Расселл Стейнберг, Купер Торнтон, Люси Уолш
    Описание: Эмануэль — язвительная и в то же время чувствительная девушка-подросток, живущая со своим отцом и мачехой. Приближается её очередной день рождения, однако Эмануэль безразличен этот праздник с тех пор, как её мать, подарив ей жизнь, умерла при родах. В это же время по соседству с ней поселяется загадочная Линда, обладающая поразительным сходством с покойной матерью Эмануэль. Заинтригованная данным фактом, Эмануэль начинает работать няней для новорожденной дочери Линды и постепенно втягивается в хрупкий, вымышленный мир своей соседки, в котором самой Эмануэль отведена роль привратника.
    Качество видео: BDRip [The.Truth.About.Emanuel.2013.BDRemux.1080p.NovaLan]
    Формат видео: AVI
    Видео: 688x288 (2.39:1), 23.976 fps, XviD build 73 ~948 kbps avg, 0.20 bit/pixel
    Аудио: 48 kHz, MPEG Layer 3, 2 ch, ~128.00 kbps avg

    MediaInfo

    Общее
    Полное имя : H:\The.Truth.About.Emanuel.2013.dbrip_[745]_[teko].avi
    Формат : AVI
    Формат/Информация : Audio Video Interleave
    Размер файла : 744 Мбайт
    Продолжительность : 1 ч. 35 м.
    Общий поток : 1086 Кбит/сек
    Программа кодирования : VirtualDubMod 1.5.10.3 | www.virtualdub-fr.org || (build 2550/release)
    Библиотека кодирования : VirtualDubMod build 2550/release
    Видео
    Идентификатор : 0
    Формат : MPEG-4 Visual
    Профиль формата : Advanced Simple@L5
    Параметр BVOP формата : 2
    Параметр QPel формата : Нет
    Параметр GMC формата : Без точки перехода
    Параметр матрицы формата : Выборочная
    Идентификатор кодека : XVID
    Идентификатор кодека/Подсказка : XviD
    Продолжительность : 1 ч. 35 м.
    Битрейт : 949 Кбит/сек
    Ширина : 688 пикселей
    Высота : 288 пикселей
    Соотношение сторон : 2,40:1
    Частота кадров : 23,976 кадра/сек
    Цветовое пространство : YUV
    Субдискретизация насыщенности : 4:2:0
    Битовая глубина : 8 бит
    Тип развёртки : Прогрессивная
    Метод сжатия : С потерями
    Бит/(Пиксели*Кадры) : 0.200
    Размер потока : 650 Мбайт (87%)
    Библиотека кодирования : XviD 73
    Аудио
    Идентификатор : 1
    Формат : MPEG Audio
    Версия формата : Version 1
    Профиль формата : Layer 3
    Идентификатор кодека : 55
    Идентификатор кодека/Подсказка : MP3
    Продолжительность : 1 ч. 35 м.
    Вид битрейта : Постоянный
    Битрейт : 128 Кбит/сек
    Каналы : 2 канала
    Частота : 48,0 КГц
    Метод сжатия : С потерями
    Размер потока : 87,6 Мбайт (12%)
    Выравнивание : Соединение по промежуткам
    Продолжительность промежутка : 42 мс. (1,00 видеокадр)
    Время предзагрузки промежутка : 504 мс.
    Библиотека кодирования : LAME3.98r
    Настройки программы : -m s -V 4 -q 2 -lowpass 17 -b 128

    Скриншоты

    Релиз группы:

    -
    -
    Скачать .torrent

    Скачать торрент-файл бесплатно и на максимальной скорости!

    Как скачивать? · Что такое торрент? · Рейтинг и ограничения

    !ВНИМАНИЕ!
    Сайт не распространяет и не хранит электронные версии произведений, а занимается лишь лишь предоставлением доступа к создаваемому пользователями каталогу ссылок на торрент-файлы, которые содержат только списки хеш-сумм, убедительная просьба с жалобами обращаться напрямую к пользователю. Файлы для обмена на трекере предоставлены пользователями сайта, и администрация не несёт ответственности за их содержание. Просьба не заливать файлы, защищенные авторскими правами, а также файлы нелегального содержания!


    _________________
    [Профиль] [ЛС]
    Показать сообщения:    
    Ответить на тему

    Текущее время: Сегодня, в 06:11

    Часовой пояс: GMT + 2



    Вы не можете начинать темы
    Вы не можете отвечать на сообщения
    Вы не можете редактировать свои сообщения
    Вы не можете удалять свои сообщения
    Вы не можете голосовать в опросах
    Вы не можете прикреплять файлы к сообщениям
    Вы не можете скачивать файлы