BitTorrentTracker PerecTracker.org
BitTorrentTracker PerecTracker.org
    
Регистрация  ·  Вход
 
 · 
Забыли пароль?

  • Oeiras 2013. R1. Koehler vs Vesnina. Мария Кёллер - Елена Веснина. Евроспорт2 [29.04.2013, Теннис, SD, RU, SAT, mpg]

    Ответить на тему
     
    Автор Сообщение

    Columb

    Создавать темы 30-Апр-2013 11:15

           

    [Цитировать]

    Оэйраш 2013. Первый круг.
    Мария Кёллер (Португалия) - Елена Веснина.
    Koehler vs Vesnina

    Дата: 29 апреля 2013 года
    Комментатор: Владас Ташев
    Канал: Евроспорт2
    На вышке: Хуан Джан (Китай)
    Описание: Турнир переехал из Эшторила в Оэйраш, но... остался на тех же кортах. И в той же Португалии.
    В 1.04.28 Лена жжёт.
    Автор рипа/записи: я
    Качество: SAT (ABS 1 at 75.0°E 12670 V)
    Формат видео: MPEG-2

    MediaInfo и продолжительность

    General
    Complete name : F:\Tennis my\Oeiras2013.R1.Koehler-Vesnina.mpg
    Format : MPEG-PS
    File size : 2.26 GiB
    Duration : 1h 28mn
    Overall bit rate : 3 670 Kbps
    Video
    ID : 224 (0xE0)
    Format : MPEG Video
    Format version : Version 2
    Format profile : Main@Main
    Format settings, BVOP : Yes
    Format settings, Matrix : Default
    Format settings, GOP : M=3, N=24
    Duration : 1h 28mn
    Bit rate mode : Variable
    Bit rate : 3 501 Kbps
    Nominal bit rate : 15.0 Mbps
    Width : 704 pixels
    Height : 576 pixels
    Display aspect ratio : 16:9
    Frame rate : 25.000 fps
    Standard : PAL
    Color space : YUV
    Chroma subsampling : 4:2:0
    Bit depth : 8 bits
    Scan type : Interlaced
    Scan order : Top Field First
    Compression mode : Lossy
    Bits/(Pixel*Frame) : 0.345
    Stream size : 2.16 GiB (95%)
    Audio
    ID : 192 (0xC0)
    Format : MPEG Audio
    Format version : Version 1
    Format profile : Layer 2
    Mode extension : Intensity Stereo + MS Stereo
    Duration : 1h 28mn
    Bit rate mode : Constant
    Bit rate : 96.0 Kbps
    Channel(s) : 1 channel
    Sampling rate : 48.0 KHz
    Compression mode : Lossy
    Stream size : 60.5 MiB (3%)

    Скриншоты



    Счёт

    6-4 6-1
    Скачать .torrent

    Скачать торрент-файл бесплатно и на максимальной скорости!

    Как скачивать? · Что такое торрент? · Рейтинг и ограничения

    !ВНИМАНИЕ!
    Сайт не распространяет и не хранит электронные версии произведений, а занимается лишь лишь предоставлением доступа к создаваемому пользователями каталогу ссылок на торрент-файлы, которые содержат только списки хеш-сумм, убедительная просьба с жалобами обращаться напрямую к пользователю. Файлы для обмена на трекере предоставлены пользователями сайта, и администрация не несёт ответственности за их содержание. Просьба не заливать файлы, защищенные авторскими правами, а также файлы нелегального содержания!

    [Профиль] [ЛС]
    Показать сообщения:    
    Ответить на тему

    Текущее время: Сегодня, в 06:13

    Часовой пояс: GMT + 2



    Вы не можете начинать темы
    Вы не можете отвечать на сообщения
    Вы не можете редактировать свои сообщения
    Вы не можете удалять свои сообщения
    Вы не можете голосовать в опросах
    Вы не можете прикреплять файлы к сообщениям
    Вы не можете скачивать файлы