BitTorrentTracker PerecTracker.org
BitTorrentTracker PerecTracker.org
    
Регистрация  ·  Вход
 
 · 
Забыли пароль?

  • Топ Гир - Идеальное Путешествие 2 / Top Gear - The Perfect Road Trip 2 [2014, BDRip/1080p, MKV/H.264, DTS, EN] Subs (EN)

    Ответить на тему
     
    Автор Сообщение

    Light

    Создавать темы 15-Июл-2015 21:16

           

    [Цитировать]

    Топ Гир - Идеальное Путешествие 2 / Top Gear - The Perfect Road Trip 2
    -
    Страна: Великобритания
    Жанр: Автопередача
    Ведущие: Jeremy Clarkson, Richard Hammond
    Дата выпуска: 2014
    Продолжительность: 01:34:28-Перевод: Отсутствует
    Русские субтитры: Нет
    Язык: Английский
    Субтитры: Английские (UTF-8)
    -
    Описание: In 2013 Jeremy Clarkson and Richard Hammond embarked on what they hoped would be the perfect road trip. It started well and ended, quite frankly, very badly. Unbowed, the Top Gear pair are back for another crack and this time they’re hoping to avoid inconveniences like apprehension by the French police. Welcome, then, to The Perfect Road Trip… 2.
    Once again, Clarkson and Hammond are seeking joy and perfection wherever it may be with a range of fast, beautiful and exciting cars unleashed on glorious roads amongst gorgeous scenery and drenched in Mediterranean sunshine. As part of their arduous research into perfection, the duo will also undertake some ridiculous challenges and hilarious stunts culminating in a strangely literal car race on the island of Capri. Top Gear – The Perfect Road Trip 2. This time it really is perfect. Except for the bits that aren’t.
    -
    Доп. информация: Автор рипа: SONiDO
    -
    Качество видео: BDRip
    Формат видео: MKV
    Видео: AVC, 1920x1080, 25.0 fps, 8417Kbps
    Аудио: DTS, 1509Kbps, 6 channels

    Скриншоты

    Media Info

    General
    Unique ID : 253176999241151445737793612941698955632 (0xBE781DCCD719136081BF573D09227970)
    Complete name : Top.Gear.The.Perfect.Road.Trip.2.2014.BDRip.1080p.DTS.EN.mkv
    Format : Matroska
    Format version : Version 2
    File size : 6.55 GiB
    Duration : 1h 34mn
    Overall bit rate : 9 929 Kbps
    Encoded date : UTC 2014-11-19 08:53:04
    Writing application : mkvmerge v7.0.0 ('Where We Going') 32bit built on Jun 9 2014 15:08:34
    Writing library : libebml v1.3.0 + libmatroska v1.4.1
    DURATION : 01:34:01.599000000
    NUMBER_OF_FRAMES : 1860
    NUMBER_OF_BYTES : 66083
    _STATISTICS_WRITING_APP : mkvmerge v7.0.0 ('Where We Going') 32bit built on Jun 9 2014 15:08:34
    _STATISTICS_WRITING_DATE_UTC : 2014-11-19 08:53:04
    _STATISTICS_TAGS : BPS DURATION NUMBER_OF_FRAMES NUMBER_OF_BYTES
    Video
    ID : 1
    Format : AVC
    Format/Info : Advanced Video Codec
    Format profile : High@L4.1
    Format settings, CABAC : Yes
    Format settings, ReFrames : 4 frames
    Codec ID : V_MPEG4/ISO/AVC
    Duration : 1h 34mn
    Bit rate : 8 417 Kbps
    Width : 1 920 pixels
    Height : 1 080 pixels
    Display aspect ratio : 16:9
    Frame rate mode : Constant
    Frame rate : 25.000 fps
    Color space : YUV
    Chroma subsampling : 4:2:0
    Bit depth : 8 bits
    Scan type : Progressive
    Bits/(Pixel*Frame) : 0.162
    Stream size : 5.43 GiB (83%)
    Writing library : x264 core 142 r2479 dd79a61
    Encoding settings : cabac=1 / ref=4 / deblock=1:0:0 / analyse=0x3:0x133 / me=umh / subme=7 / psy=1 / psy_rd=1.00:0.00 / mixed_ref=1 / me_range=16 / chroma_me=1 / trellis=1 / 8x8dct=1 / cqm=0 / deadzone=21,11 / fast_pskip=0 / chroma_qp_offset=-2 / threads=12 / lookahead_threads=2 / sliced_threads=0 / nr=0 / decimate=1 / interlaced=0 / bluray_compat=0 / constrained_intra=0 / bframes=3 / b_pyramid=2 / b_adapt=2 / b_bias=0 / direct=3 / weightb=1 / open_gop=0 / weightp=2 / keyint=250 / keyint_min=25 / scenecut=40 / intra_refresh=0 / rc_lookahead=50 / rc=2pass / mbtree=1 / bitrate=8417 / ratetol=1.0 / qcomp=0.60 / qpmin=0 / qpmax=69 / qpstep=4 / cplxblur=20.0 / qblur=0.5 / ip_ratio=1.40 / aq=1:1.00
    Language : English
    Default : Yes
    Forced : No
    DURATION : 01:34:28.440000000
    NUMBER_OF_FRAMES : 141711
    NUMBER_OF_BYTES : 5964085026
    _STATISTICS_WRITING_APP : mkvmerge v7.0.0 ('Where We Going') 32bit built on Jun 9 2014 15:08:34
    _STATISTICS_WRITING_DATE_UTC : 2014-11-19 08:53:04
    _STATISTICS_TAGS : BPS DURATION NUMBER_OF_FRAMES NUMBER_OF_BYTES
    Audio
    ID : 2
    Format : DTS
    Format/Info : Digital Theater Systems
    Mode : 16
    Format settings, Endianness : Big
    Codec ID : A_DTS
    Duration : 1h 34mn
    Bit rate mode : Constant
    Bit rate : 1 509 Kbps
    Channel(s) : 6 channels
    Channel positions : Front: L C R, Side: L R, LFE
    Sampling rate : 48.0 KHz
    Bit depth : 24 bits
    Compression mode : Lossy
    Stream size : 1 020 MiB (15%)
    Language : English
    Default : Yes
    Forced : No
    Text
    ID : 3
    Format : UTF-8
    Codec ID : S_TEXT/UTF8
    Codec ID/Info : UTF-8 Plain Text
    Language : English
    Default : Yes
    Forced : No
    Menu
    00:00:00.000 : en:00:00:00.000
    00:03:23.320 : en:00:03:23.320
    00:19:35.640 : en:00:19:35.640
    00:33:17.000 : en:00:33:17.000
    00:40:01.200 : en:00:40:01.200
    00:52:06.000 : en:00:52:06.000
    01:01:35.640 : en:01:01:35.640
    01:15:21.800 : en:01:15:21.800
    01:22:40.600 : en:01:22:40.600
    01:27:22.000 : en:01:27:22.000
    01:31:56.280 : en:01:31:56.280
    Скачать .torrent

    Скачать торрент-файл бесплатно и на максимальной скорости!

    Как скачивать? · Что такое торрент? · Рейтинг и ограничения

    !ВНИМАНИЕ!
    Сайт не распространяет и не хранит электронные версии произведений, а занимается лишь лишь предоставлением доступа к создаваемому пользователями каталогу ссылок на торрент-файлы, которые содержат только списки хеш-сумм, убедительная просьба с жалобами обращаться напрямую к пользователю. Файлы для обмена на трекере предоставлены пользователями сайта, и администрация не несёт ответственности за их содержание. Просьба не заливать файлы, защищенные авторскими правами, а также файлы нелегального содержания!


    _________________
    [Профиль] [ЛС]
    Показать сообщения:    
    Ответить на тему

    Текущее время: Сегодня, в 08:07

    Часовой пояс: GMT + 2



    Вы не можете начинать темы
    Вы не можете отвечать на сообщения
    Вы не можете редактировать свои сообщения
    Вы не можете удалять свои сообщения
    Вы не можете голосовать в опросах
    Вы не можете прикреплять файлы к сообщениям
    Вы не можете скачивать файлы