BitTorrentTracker PerecTracker.org
BitTorrentTracker PerecTracker.org
    
Регистрация  ·  Вход
 
 · 
Забыли пароль?

  • Топ Гир: Идеальное путешествие 2 / Top Gear: The Perfect Road Trip 2 [2014 г., UK, Автопередача, BDRip] MVO (AlexFilm)

    Ответить на тему
     
    Автор Сообщение

    Light

    Создавать темы 15-Июл-2015 21:16

           

    [Цитировать]

    -Топ Гир: Идеальное путешествие 2
    Top Gear: The Perfect Road Trip 2
    --Год выхода: 2014
    Страна: Великобритания
    Жанр: Автопередача
    Продолжительность: 01:34:28
    Озвучание: профессиональное многоголосое закадровое (AlexFilm)
    Субтитры: нет-Режиссёр: Фил Черчворд (Phil Churchward)
    В ролях: Джереми Кларксон (Jeremy Clarkson), Ричард Хаммонд (Richard Hammond), Стиг (Stig)-Описание: В 2013 году Джереми Кларксон и Ричард Хаммонд попытались совершить поездку, которая должна была стать идеальной. Всё началось хорошо, но кончилось довольно плохо. В этот раз дуэт из "Топ Гира" пытается совершить вторую попытку в надежде избежать неприятностей вроде задержания французской полицией.
    Добро пожаловать в "Идеальное путешествие 2". И вновь Кларксон и Хаммонд ищут радость и идеал среди целого ряда быстрых и прекрасных автомобилей, едущих по славным дорогам среди живописных видов под средиземноморским солнцем. В поиске идеала дуэту предстоит проделать массу забавных трюков и выдержать несколько нелепых испытаний, кульминацией которых станет гонка на острове Капри. Топ Гир - Идеальное путешествие 2. В этот раз, и впрямь идеальное. Если не считать кое-каких мелочей.-Релиз:
    Перевод: Константин Кривоногов
    Монтаж и сведение звука: Сергей Мартынов
    Роли озвучивали: Роман Сопко, Александр Дасевич, Татьяна Манетина- -Качество видео: BDRip
    Формат: AVI
    Видео кодек: XviD
    Аудио кодек: MP3
    Видео: 720x400 (1.80:1), 25 fps, XviD ~1600 kbps avg, 0.222 bit/pixel
    Аудио Rus: 48 kHz, MPEG Layer 3, 2 ch, ~128.00 kbps avg
    Аудио Eng: 48 kHz, MPEG Layer 3, 2 ch, ~128.00 kbps avg-Цитата:
    Цитата:

    Переведено и озвучено при поддержке пользователей AlexFilm: lavel, saurshadow, iosatori, lisanovd, evgfitil, _alk0g0lik_, lirik-m.

    -

    Скриншоты

    MediaInfo

    Format : AVI
    Format/Info : Audio Video Interleave
    File size : 1.24 GiB
    Duration : 1h 34mn
    Overall bit rate : 1 872 Kbps
    Movie name : Top Gear: The Perfect Road Trip 2 @ AlexFilm
    Writing application : VirtualDubMod 1.5.10.2 (build 2542/release)
    Video
    ID : 0
    Format : MPEG-4 Visual
    Format profile : Advanced Simple@L5
    Format settings, BVOP : 1
    Format settings, QPel : No
    Format settings, GMC : No warppoints
    Format settings, Matrix : Default (MPEG)
    Codec ID : XVID
    Codec ID/Hint : XviD
    Duration : 1h 34mn
    Bit rate : 1 602 Kbps
    Width : 720 pixels
    Height : 400 pixels
    Display aspect ratio : 16:9
    Frame rate : 25.000 fps
    Color space : YUV
    Chroma subsampling : 4:2:0
    Bit depth : 8 bits
    Scan type : Progressive
    Compression mode : Lossy
    Bits/(Pixel*Frame) : 0.222
    Stream size : 1.06 GiB (86%)
    Writing library : XviD 1.2.1 (UTC 2008-12-04)
    Audio #1
    ID : 1
    Format : MPEG Audio
    Format version : Version 1
    Format profile : Layer 3
    Mode : Joint stereo
    Mode extension : MS Stereo
    Codec ID : 55
    Codec ID/Hint : MP3
    Duration : 1h 34mn
    Bit rate mode : Constant
    Bit rate : 128 Kbps
    Channel(s) : 2 channels
    Sampling rate : 48.0 KHz
    Compression mode : Lossy
    Stream size : 86.5 MiB (7%)
    Alignment : Aligned on interleaves
    Interleave, duration : 40 ms (1.00 video frame)
    Interleave, preload duration : 504 ms
    Title : Russian (AlexFilm)
    Audio #2
    ID : 2
    Format : MPEG Audio
    Format version : Version 1
    Format profile : Layer 3
    Mode : Joint stereo
    Mode extension : MS Stereo
    Codec ID : 55
    Codec ID/Hint : MP3
    Duration : 1h 34mn
    Bit rate mode : Constant
    Bit rate : 128 Kbps
    Channel(s) : 2 channels
    Sampling rate : 48.0 KHz
    Compression mode : Lossy
    Stream size : 86.5 MiB (7%)
    Alignment : Aligned on interleaves
    Interleave, duration : 40 ms (1.00 video frame)
    Interleave, preload duration : 504 ms
    Title : English
    -Раздачи Top Gear в озвучке AlexFilm-
    Скачать .torrent

    Скачать торрент-файл бесплатно и на максимальной скорости!

    Как скачивать? · Что такое торрент? · Рейтинг и ограничения

    !ВНИМАНИЕ!
    Сайт не распространяет и не хранит электронные версии произведений, а занимается лишь лишь предоставлением доступа к создаваемому пользователями каталогу ссылок на торрент-файлы, которые содержат только списки хеш-сумм, убедительная просьба с жалобами обращаться напрямую к пользователю. Файлы для обмена на трекере предоставлены пользователями сайта, и администрация не несёт ответственности за их содержание. Просьба не заливать файлы, защищенные авторскими правами, а также файлы нелегального содержания!


    _________________
    [Профиль] [ЛС]
    Показать сообщения:    
    Ответить на тему

    Текущее время: Сегодня, в 20:35

    Часовой пояс: GMT + 2



    Вы не можете начинать темы
    Вы не можете отвечать на сообщения
    Вы не можете редактировать свои сообщения
    Вы не можете удалять свои сообщения
    Вы не можете голосовать в опросах
    Вы не можете прикреплять файлы к сообщениям
    Вы не можете скачивать файлы