BitTorrentTracker PerecTracker.org
BitTorrentTracker PerecTracker.org
    
Регистрация  ·  Вход
 
 · 
Забыли пароль?

  • Топ Гир - Патагония (специальный выпуск) / Top Gear - Patagonia Special / BBC [27-28.12.2014, Великобритания, Телевизионное авто-шоу, HDTV, 1080i, EN]

    Ответить на тему
     
    Автор Сообщение

    Light

    Создавать темы 15-Июл-2015 21:16

           

    [Цитировать]

    Топ Гир - Патагония (специальный выпуск) / Top Gear - Patagonia Special
    Страна: Великобритания
    Режиссер: Энди Уилман
    Жанр: Телевизионное авто-шоу
    Дата выпуска: 27-28.12.2014
    Продолжительность: ~1 час
    Перевод: Отсутствует
    Cубтитры: английские
    Описание: Это очередной рождественский спецвыпуск шоу Топ Гир. В этот раз Джереми Кларксон, Ричард Хаммонд и Джеймс Мэй на 3-ёх восьмицилиндровых спорткарах отправятся на изнурительное путешествие в 1600 миль через впечатляющие пейзажи Патагонии (Южная Америка). В пути у них много препятствий. В том числе неровные дороги, сломанные кости и коровы... Самой главной их задачей в первой части спецвыпуска будет добраться до самого южного города в Патагонии.
    Доп. информация: Автор - SneaKyTPB
    Качество видео: HDTV
    Формат видео: MKV
    Видео: MPEG-4 AVC, 1920x1080, 25 fps, ~7 Mbps
    Аудио: AC3, 48 kHz, 2 ch, ~192 kbps avg
    MediaInfo

    Part 1

    Unique ID : 205651659075020074458901064959835802874 (0x9AB7119F028D8498B1533B13B1B88CFA)
        Complete name : Top.Gear.Christmas.Special.Patagonia.1080i.HDTV.x264\Top.Gear.Christmas.Special.Patagonia.Part.1.1080i.HDTV.x264.mkv
        Format : Matroska
        Format version : Version 4 / Version 2
        File size : 2.85 GiB
        Duration : 1h 2mn
        Overall bit rate mode : Variable
        Overall bit rate : 6 584 Kbps
        Encoded date : UTC 2014-12-27 21:40:24
        Writing application : mkvmerge v7.4.0 ('Circles') 64bit built on Dec 12 2014 12:19:56
        Writing library : libebml v1.3.0 + libmatroska v1.4.1
        DURATION : 01:02:04.224000000
        NUMBER_OF_FRAMES : 116382
        NUMBER_OF_BYTES : 89381376
        _STATISTICS_WRITING_APP : mkvmerge v7.4.0 ('Circles') 64bit built on Dec 12 2014 12:19:56
        _STATISTICS_WRITING_DATE_UTC : 2014-12-27 21:40:24
        _STATISTICS_TAGS : BPS DURATION NUMBER_OF_FRAMES NUMBER_OF_BYTES
      Video #1
        ID : 1
        Format : AVC
        Format/Info : Advanced Video Codec
        Format profile : High@L4.0
        Format settings, CABAC : Yes
        Format settings, ReFrames : 4 frames
        Codec ID : V_MPEG4/ISO/AVC
        Bit rate mode : Variable
        Bit rate : 6 261 Kbps
        Maximum bit rate : 40.0 Mbps
        Width : 1 920 pixels
        Height : 1 080 pixels
        Display aspect ratio : 16:9
        Frame rate mode : Variable
        Original frame rate : 25.000 fps
        Standard : Component
        Color space : YUV
        Chroma subsampling : 4:2:0
        Bit depth : 8 bits
        Scan type : MBAFF
        Default : Yes
        Forced : No
        Color primaries : BT.709
        Transfer characteristics : BT.709
        Matrix coefficients : BT.709
      Audio #2
        ID : 2
        Format : AC-3
        Format/Info : Audio Coding 3
        Mode extension : CM (complete main)
        Format settings, Endianness : Big
        Codec ID : A_AC3
        Duration : 1h 2mn
        Bit rate mode : Constant
        Bit rate : 192 Kbps
        Channel(s) : 2 channels
        Channel positions : Front: L R
        Sampling rate : 48.0 KHz
        Bit depth : 16 bits
        Compression mode : Lossy
        Delay relative to video : -684ms
        Stream size : 85.2 MiB (3%)
        Language : English
        Default : Yes
        Forced : No

    Part 2

    General
        Unique ID : 197820485355117801844503083850681735996 (0x94D2D6F2603F956EA7939DB5C16EDB3C)
        Complete name : Top.Gear.Christmas.Special.Patagonia.1080i.HDTV.x264\Top.Gear.Christmas.Special.Patagonia.Part.2.1080i.HDTV.x264.mkv
        Format : Matroska
        Format version : Version 4 / Version 2
        File size : 2.95 GiB
        Duration : 1h 2mn
        Overall bit rate mode : Variable
        Overall bit rate : 6 703 Kbps
        Encoded date : UTC 2014-12-29 08:47:34
        Writing application : mkvmerge v7.4.0 ('Circles') 64bit built on Dec 12 2014 12:19:56
        Writing library : libebml v1.3.0 + libmatroska v1.4.1
        _STATISTICS_WRITING_APP : mkvmerge v7.4.0 ('Circles') 64bit built on Dec 12 2014 12:19:56
        _STATISTICS_WRITING_DATE_UTC : 2014-12-29 08:47:34
        _STATISTICS_TAGS : BPS DURATION NUMBER_OF_FRAMES NUMBER_OF_BYTES
        DURATION : 01:01:57.360000000
        NUMBER_OF_FRAMES : 963
        NUMBER_OF_BYTES : 36366
      Video #1
        ID : 1
        Format : AVC
        Format/Info : Advanced Video Codec
        Format profile : High@L4.0
        Format settings, CABAC : Yes
        Format settings, ReFrames : 4 frames
        Codec ID : V_MPEG4/ISO/AVC
        Bit rate mode : Variable
        Bit rate : 6 377 Kbps
        Maximum bit rate : 40.0 Mbps
        Width : 1 920 pixels
        Height : 1 080 pixels
        Display aspect ratio : 16:9
        Frame rate mode : Variable
        Original frame rate : 25.000 fps
        Standard : Component
        Color space : YUV
        Chroma subsampling : 4:2:0
        Bit depth : 8 bits
        Scan type : MBAFF
        Default : Yes
        Forced : No
        Color primaries : BT.709
        Transfer characteristics : BT.709
        Matrix coefficients : BT.709
      Audio #2
        ID : 2
        Format : AC-3
        Format/Info : Audio Coding 3
        Mode extension : CM (complete main)
        Format settings, Endianness : Big
        Codec ID : A_AC3
        Duration : 1h 2mn
        Bit rate mode : Constant
        Bit rate : 192 Kbps
        Channel(s) : 2 channels
        Channel positions : Front: L R
        Sampling rate : 48.0 KHz
        Bit depth : 16 bits
        Compression mode : Lossy
        Delay relative to video : -544ms
        Stream size : 86.5 MiB (3%)
        Language : English
        Default : Yes
        Forced : No
      Text #3
        ID : 3
        Format : UTF-8
        Codec ID : S_TEXT/UTF8
        Codec ID/Info : UTF-8 Plain Text
        Language : English
        Default : Yes
        Forced : No

    Скриншоты


    Скачать .torrent

    Скачать торрент-файл бесплатно и на максимальной скорости!

    Как скачивать? · Что такое торрент? · Рейтинг и ограничения

    !ВНИМАНИЕ!
    Сайт не распространяет и не хранит электронные версии произведений, а занимается лишь лишь предоставлением доступа к создаваемому пользователями каталогу ссылок на торрент-файлы, которые содержат только списки хеш-сумм, убедительная просьба с жалобами обращаться напрямую к пользователю. Файлы для обмена на трекере предоставлены пользователями сайта, и администрация не несёт ответственности за их содержание. Просьба не заливать файлы, защищенные авторскими правами, а также файлы нелегального содержания!


    _________________
    [Профиль] [ЛС]
    Показать сообщения:    
    Ответить на тему

    Текущее время: Сегодня, в 18:23

    Часовой пояс: GMT + 2



    Вы не можете начинать темы
    Вы не можете отвечать на сообщения
    Вы не можете редактировать свои сообщения
    Вы не можете удалять свои сообщения
    Вы не можете голосовать в опросах
    Вы не можете прикреплять файлы к сообщениям
    Вы не можете скачивать файлы