BitTorrentTracker PerecTracker.org
BitTorrentTracker PerecTracker.org
    
Регистрация  ·  Вход
 
 · 
Забыли пароль?

  • Топ Гир / Top Gear / Сезон 1 / Серии 1-10 (10) [2002 г., UK, Автопередача, SATRip-AVC] MVO AlexFilm

    Ответить на тему
     
    Автор Сообщение

    Light

    Создавать темы 15-Июл-2015 21:16

           

    [Цитировать]

    -Топ Гир / Top Gear
    1 сезон
    --Год выхода: 2002
    Страна: Великобритания
    Жанр: Автопередача
    Продолжительность: 10 х ~ 60 мин
    Озвучание: профессиональное многоголосое закадровое (AlexFilm)
    Субтитры: нет-Режиссёры: Брайан Клейн (Brian Klein), Ричард Хили (Richard Heeley), Крис Хук (Chris Hooke), Саймон Ладгейт (Simon Ludgate), Найджел Симпкисс (Nigel Simpkiss), Майкл Мэсси (Michael Massey)
    В ролях: Джереми Кларксон (Jeremy Clarkson), Ричард Хаммонд (Richard Hammond), Джейсон Доу (Jason Dawe), Стиг - Перри Маккарти (Perry McCarthy as The Stig), Гарри Энфилд (Harry Enfield ), Джей Кей (Jay Kay), Росс Кемп (Ross Kemp), Стив Куган (Steve Coogan), Ричард Бёрнс (Richard Burns), Деймон Хилл (Damon Hill), Джонатан Росс (Jonathan Ross), Тара Палмер-Томкинсон (Tara Palmer-Tomkinson), Рик Парфитт (Rick Parfitt), Майкл Блейки (Michael Blakey), Майкл Гэмбон (Michael Gambon), Гордон Рамзи (Gordon Ramsay)-Описание: Top Gear — популярная английская телепередача, посвящённая автомобилям. Первые выпуски передачи появились в 1977 году. Эта передача была просто пересказ журнала, в течение долгого времени формат передачи не менялся. Но в 2002 году, произошёл перезапуск цикла, и вместо сухого пересказа, появился современный "Top Gear", с юмором, приколами и фирменными тестами. Аудитория программ в странах официальной трансляции составляет около 350 миллионов человек.-Релиз:
    Перевод: Константин Кривоногов
    Монтаж и сведение звука: Николай Вишняков
    Роли озвучивали:
  • Александр Дасевич
  • Константин Погодаев
  • Роман Сопко
  • Татьяна Манетина (3-7, 9, 10)- -Качество видео: SATRip-AVC
    Формат: MKV
    Видео кодек: x264
    Аудио кодек: AC3
    Видео: 712@1012x572 (16:9), 25 fps, MPEG-4 AVC, ~2100 kbps avg, 0.205 bit/pixel
    Аудио Rus: 48 kHz, AC3 Dolby Digital, 2/0 (L,R) ch, ~192.00 kbps
    Аудио Eng: 48 kHz, AC3 Dolby Digital, 2/0 (L,R) ch, ~192.00 kbps-Список и описание серий
    -
    Top Gear 1х01-
  • Тестируемые автомобили: Citroën Berlingo, Pagani Zonda, Lamborghini Murciélago, Mazda 6.
  • Состязание: Тест дизельной машины на пережаренном масле. Камеры-радары.
  • Гость программы: Гарри Энфилд.
    -
    Top Gear 1х02-
  • Тестируемые автомобили: Ford Focus RS, Noble M12 GTO, Ford RS 1800.
  • Состязание: Двухэтажный автобус перепрыгивает через мотоциклы.
  • Гость программы: Джей Кей.
    -
    Top Gear 1х03-
  • Тестируемые автомобили: Mini Cooper, Citroën DS, Toyota Yaris Verso.
  • Состязание: Бабушки делают пончики на Honda S2000.
  • Гость программы: Росс Кемп.
    -
    Top Gear 1х04-
  • Тестируемые автомобили: Aston Martin V12 Vanquish, Ferrari 575M Maranello, Nissan Skyline GT-R
  • Состязание: Самый быстрый четырёхдверный семейный седан с двухлитровым двигателем.
  • Гости программы: Стив Куган, Ричард Бёрнс, Деймон Хилл
    -
    Top Gear 1х05-
  • Тестируемые автомобили: Mercedes S-Class, Audi A8, Maybach 62, Bentley Arnage
  • Состязание: Превращение обычной машины в машину Бонда.
  • Гость программы: Джонатан Росс
    -
    Top Gear 1х06-
  • Тестируемые автомобили: Renault Vel Satis, BMW Z4, Mercedes-Benz SL55 AMG.
  • Состязание: Бабушки паркуются при помощи ручного тормоза.
  • Гость программы: Тара Палмер-Томкинсон.
    -
    Top Gear 1х07-
  • Тестируемые автомобили: Saab 9-3, Lotus Elise 111S.
  • Состязание: Самая быстрая вера в Британии (1 часть).
  • Гость программы: Рик Парфитт.
    -
    Top Gear 1х08-
  • Тестируемые автомобили: Audi RS6, Mercedes-Benz E55 AMG, Maserati Coupé, Ford Fiesta, Citroën C3, Honda Jazz, Nissan Micra, MG ZR, Lada Riva (модифицированная компанией Lotus).
  • Состязание: Самый быстрый водитель фургона в Британии.
  • Гость программы: Майкл Гэмбон
    -
    Top Gear 1х09-
  • Тестируемые автомобили: Volvo XC90, Subaru Forester, VW Golf R32, Honda Civic Type R, Toyota Land Cruiser.
  • Состязание: Стиг на Radical SR3 против самолёта CAP 232.
  • Гость программы: Гордон Рамзи
    -
    Top Gear 1х10-
  • Тестируемые автомобили: Range Rover, Lotus Esprit, Nissan Primera, TVR T350C.
  • Состязание: Самая быстрая вера в Британии (2 часть).
  • Вручение награды самому быстрому водителю среди знаменитостей.
    -

    Скриншоты

    MediaInfo

    Format : Matroska
    Format version : Version 4 / Version 2
    File size : 1.03 GiB
    Duration : 59mn 7s
    Overall bit rate : 2 497 Kbps
    Movie name : Top Gear 1x01 @ AlexFilm
    Encoded date : UTC 2014-11-27 09:30:34
    Writing application : mkvmerge v6.6.0 ('The Edge Of The In Between') built on Dec 1 2013 17:55:00
    Writing library : libebml v1.3.0 + libmatroska v1.4.1
    Video
    ID : 1
    Format : AVC
    Format/Info : Advanced Video Codec
    Format profile : High@L4.1
    Format settings, CABAC : Yes
    Format settings, ReFrames : 12 frames
    Codec ID : V_MPEG4/ISO/AVC
    Duration : 59mn 7s
    Bit rate : 2 063 Kbps
    Width : 712 pixels
    Height : 572 pixels
    Display aspect ratio : 16:9
    Original display aspect ratio : 16:9
    Frame rate mode : Constant
    Frame rate : 25.000 fps
    Color space : YUV
    Chroma subsampling : 4:2:0
    Bit depth : 8 bits
    Scan type : Progressive
    Bits/(Pixel*Frame) : 0.203
    Stream size : 873 MiB (83%)
    Writing library : x264 core 142 r2491 24e4fed
    Encoding settings : cabac=1 / ref=12 / deblock=1:-3:-3 / analyse=0x3:0x113 / me=umh / subme=10 / psy=1 / psy_rd=1.05:0.00 / mixed_ref=1 / me_range=32 / chroma_me=1 / trellis=2 / 8x8dct=1 / cqm=0 / deadzone=21,11 / fast_pskip=0 / chroma_qp_offset=-2 / threads=12 / lookahead_threads=2 / sliced_threads=0 / nr=0 / decimate=0 / interlaced=0 / bluray_compat=0 / constrained_intra=0 / bframes=8 / b_pyramid=2 / b_adapt=2 / b_bias=0 / direct=3 / weightb=1 / open_gop=0 / weightp=2 / keyint=250 / keyint_min=25 / scenecut=40 / intra_refresh=0 / rc=crf / mbtree=0 / crf=18.5 / qcomp=0.60 / qpmin=0 / qpmax=69 / qpstep=4 / ip_ratio=1.40 / pb_ratio=1.30 / aq=1:1.00
    Language : English
    Default : Yes
    Forced : No
    Audio #1
    ID : 2
    Format : AC-3
    Format/Info : Audio Coding 3
    Mode extension : CM (complete main)
    Format settings, Endianness : Big
    Codec ID : A_AC3
    Duration : 59mn 7s
    Bit rate mode : Constant
    Bit rate : 192 Kbps
    Channel(s) : 2 channels
    Channel positions : Front: L R
    Sampling rate : 48.0 KHz
    Bit depth : 16 bits
    Compression mode : Lossy
    Stream size : 81.2 MiB (8%)
    Title : DD2.0 AlexFilm
    Language : Russian
    Default : Yes
    Forced : No
    Audio #2
    ID : 3
    Format : AC-3
    Format/Info : Audio Coding 3
    Mode extension : CM (complete main)
    Format settings, Endianness : Big
    Codec ID : A_AC3
    Duration : 59mn 7s
    Bit rate mode : Constant
    Bit rate : 192 Kbps
    Channel(s) : 2 channels
    Channel positions : Front: L R
    Sampling rate : 48.0 KHz
    Bit depth : 16 bits
    Compression mode : Lossy
    Stream size : 81.2 MiB (8%)
    Title : DD2.0 Original
    Language : English
    Default : No
    Forced : No
    -Раздачи Top Gear в озвучке AlexFilm-
    Скачать .torrent

    Скачать торрент-файл бесплатно и на максимальной скорости!

    Как скачивать? · Что такое торрент? · Рейтинг и ограничения

    !ВНИМАНИЕ!
    Сайт не распространяет и не хранит электронные версии произведений, а занимается лишь лишь предоставлением доступа к создаваемому пользователями каталогу ссылок на торрент-файлы, которые содержат только списки хеш-сумм, убедительная просьба с жалобами обращаться напрямую к пользователю. Файлы для обмена на трекере предоставлены пользователями сайта, и администрация не несёт ответственности за их содержание. Просьба не заливать файлы, защищенные авторскими правами, а также файлы нелегального содержания!


  • _________________
    [Профиль] [ЛС]
    Показать сообщения:    
    Ответить на тему

    Текущее время: Сегодня, в 21:54

    Часовой пояс: GMT + 2



    Вы не можете начинать темы
    Вы не можете отвечать на сообщения
    Вы не можете редактировать свои сообщения
    Вы не можете удалять свои сообщения
    Вы не можете голосовать в опросах
    Вы не можете прикреплять файлы к сообщениям
    Вы не можете скачивать файлы