BitTorrentTracker PerecTracker.org
BitTorrentTracker PerecTracker.org
    
Регистрация  ·  Вход
 
 · 
Забыли пароль?

  • Top Gear / Топ Гир / Сезон: 22 / Серии: 1 из 10 / BBC [2015, Великобритания, Авто-шоу, HDTV 1080i] MVO (Gears Media), + Original

    Ответить на тему
     
    Автор Сообщение

    Light

    Создавать темы 15-Июл-2015 21:16

           

    [Цитировать]

    -Top Gear / Топ Гир-Год выпуска: 2015
    Страна: Великобритания
    Жанр: Автопередача
    Продолжительность: ~ 01:00:00
    Перевод: Профессиональный (многоголосый закадровый) - Gears Media-Режиссёр: Фил Черчворд (Phil Churchward), Брайан Клейн (Brian Klein), Конрад Бегг (Konrad Begg), Найджел Симпкисс (Nigel Simpkiss), Бен Дункан (Ben Duncan)
    В ролях: Джереми Кларксон (Jeremy Clarkson), Ричард Хаммонд (Richard Hammond), Джеймс Мэй (James May), Стиг (The Stig),-Описание: Top Gear — популярная английская телепередача, посвящённая автомобилям. Первые выпуски передачи появились в 1977 году. Эта передача была просто пересказ журнала, в течение долгого времени формат передачи не менялся. Но в 2002 году, произошёл перезапуск цикла, и вместо сухого пересказа, появился современный "Top Gear", с юмором, приколами и фирменными тестами. Аудитория программ в странах официальной трансляции составляет около 350 миллионов человек.-Релизер и работа со звуком : Автор Раздачи - АКТЕР aka CEBEPu2D
    Озвучка : Gears Media-Все раздачи сериала- -Качество: HDTV 1080i
    Формат: mkv
    Видео кодек: AVC
    Аудио кодек: AC3
    Видео: 1920x1080, 25.000 fps, ~7000 kbps, ~0.132 bit/pixel
    Аудио Rus: 48 kHz, 2 ch, 192 kbps |Gears Media|
    Аудио Eng: 48 kHz, 2 ch, 192 kbps |Original|-

    MediaInfo

    Полное имя : E:\Loading\Top.Gear.S22.1080i.HDTV.by.AKTEP\Top.Gear.S22E01.1080i.HDTV.by.AKTEP.mkv
    Формат : Matroska
    Версия формата : Version 4 / Version 2
    Размер файла : 3,20 Гбайт
    Продолжительность : 1 ч. 2 м.
    Общий поток : 7355 Кбит/сек
    Дата кодирования : UTC 2015-01-28 08:46:35
    Программа кодирования : mkvmerge v6.2.0 ('Promised Land') built on Apr 28 2013 12:22:01
    Библиотека кодирования : libebml v1.3.0 + libmatroska v1.4.0
    Видео
    Идентификатор : 1
    Формат : AVC
    Формат/Информация : Advanced Video Codec
    Профиль формата : High@L4.0
    Параметр CABAC формата : Да
    Параметр ReFrames формата : 4 кадра
    Параметр GOP формата : M=3, N=24
    Идентификатор кодека : V_MPEG4/ISO/AVC
    Продолжительность : 1 ч. 2 м.
    Битрейт : 6824 Кбит/сек
    Ширина : 1920 пикселей
    Высота : 1080 пикселей
    Соотношение сторон : 16:9
    Режим частоты кадров : Постоянный
    Частота кадров : 25,000 кадров/сек
    Стандарт вещания : Component
    Цветовое пространство : YUV
    Субдискретизация насыщенности : 4:2:0
    Битовая глубина : 8 бит
    Тип развёртки : MBAFF
    Бит/(Пиксели*Кадры) : 0.132
    Размер потока : 2,97 Гбайт (93%)
    Язык : English
    Default : Да
    Forced : Нет
    Основные цвета : BT.709
    Характеристики трансфера : BT.709
    Коэффициенты матрицы : BT.709
    Аудио #1
    Идентификатор : 2
    Формат : AC-3
    Формат/Информация : Audio Coding 3
    Расширение режима : CM (complete main)
    Параметр Endianness формата : Big
    Идентификатор кодека : A_AC3
    Продолжительность : 1 ч. 2 м.
    Вид битрейта : Постоянный
    Битрейт : 192 Кбит/сек
    Каналы : 2 канала
    Расположение каналов : Front: L R
    Частота : 48,0 КГц
    Битовая глубина : 16 бит
    Метод сжатия : С потерями
    Размер потока : 85,5 Мбайт (3%)
    Язык : Russian
    Default : Да
    Forced : Нет
    Аудио #2
    Идентификатор : 3
    Формат : AC-3
    Формат/Информация : Audio Coding 3
    Расширение режима : CM (complete main)
    Параметр Endianness формата : Big
    Идентификатор кодека : A_AC3
    Продолжительность : 1 ч. 2 м.
    Вид битрейта : Постоянный
    Битрейт : 192 Кбит/сек
    Каналы : 2 канала
    Расположение каналов : Front: L R
    Частота : 48,0 КГц
    Битовая глубина : 16 бит
    Метод сжатия : С потерями
    Размер потока : 85,5 Мбайт (3%)
    Язык : English
    Default : Нет
    Forced : Нет

    Скриншоты


    Внимание! Раздача ведётся путём добавления новых серий.

    Внимание! Раздача ведётся путём добавления новых серий; при каждом добавлении создаётся новый торрент. Чтобы начать докачку новой серии, пользователям необходимо сделать следующее:
    Остановить скачивание.
    Удалить старый торрент у себя из клиента (старые серии удалять не надо).
    Скачать новый торрент и запустить его у себя в клиенте вместо старого, при этом указать клиенту путь в старую папку куда и должно происходить скачивание новых серий.
    Ваш клиент при этом должен произвести хеширование (проверку) старой папки (если не производит сам - помогите ему сделать это), и будет докачивать только те серии которых у вас ещё нет. Старые серии при этом не удаляются, а продолжают раздаваться!
    Eсли вы уже удалили старые серии, то предотвратить повторную закачку старых серий можно, отжав галочку в соответсвующих местах при запуске нового торрента. По возможности, желательно не удалять старые серии как можно дольше чтобы релизёр не столько продолжал раздавать старые серии, а смог сконцентрироваться на новых.
    Как закачать отдельный файл из торрента или докачать ранее пропущенные файлы торрента!
    -Советую посмотреть-Mike and Molly 4 Сезон 1080р Кураж-Бамбей-Восприятие / Perception 2 сезон 1080р-Доктор Хаус / House M.D. 1 сезон 1080р-Доктор Хаус / House M.D. 2 сезон 1080р (Новая)-Доктор Хаус / House M.D. 3 сезон 1080р (Новая)-Доктор Хаус / House M.D. 4 сезон 1080р (Новая)-Восприятие / Perception 3 сезон 1080р-Wilfred 4 сезон (финальный) 1080р. Новые серии-

    _________________
    [Профиль] [ЛС]
    Показать сообщения:    
    Ответить на тему

    Текущее время: Сегодня, в 10:16

    Часовой пояс: GMT + 2



    Вы не можете начинать темы
    Вы не можете отвечать на сообщения
    Вы не можете редактировать свои сообщения
    Вы не можете удалять свои сообщения
    Вы не можете голосовать в опросах
    Вы не можете прикреплять файлы к сообщениям
    Вы не можете скачивать файлы