BitTorrentTracker PerecTracker.org
BitTorrentTracker PerecTracker.org
    
Регистрация  ·  Вход
 
 · 
Забыли пароль?

  • Кларксон: Итальянская работа / Clarkson: The Italian Job [2010 г., UK, Автопередача, Top Gear, BDRip 720p] DVO (AlexFilm)

    Ответить на тему
     
    Автор Сообщение

    Light

    Создавать темы 15-Июл-2015 21:16

           

    [Цитировать]

    -Кларксон: Итальянская работа
    Clarkson: The Italian Job
    --Год выхода: 2010
    Страна: Великобритания
    Жанр: Автопередача
    Продолжительность: 01:21:39
    Озвучание: профессиональное двухголосое закадровое (AlexFilm)
    Субтитры: нет-Режиссёр: Брайан Клайн (Brian Klein)
    В ролях: Джереми Кларксон (Jeremy Clarkson), Бен Коллинз ( Ben Collins)-Описание: Готовясь к гонке всей жизни в Кенте, Джереми тренируется на знаменитых треках "Фиорано" и "Имола", где ездит на Ferrari 458 Italia, Porsche GT3 RS, Lamborghini Gallardo LP570-4 и других автомобилях.
    В конце выпуска ему предстоит сразиться с двадцатью опытными соперниками в гонке классических туринговых автомобилей.-Релиз:
    Перевод: Константин Кривоногов
    Монтаж и сведение звука: Сергей Мартынов
    Роли озвучивали: Андрей Стакионис, Константин Погодаев- -Качество видео: BDRip 720p
    Формат: MKV
    Видео: 1280x720 (16:9), 25 fps, MPEG-4 AVC ~7028 kbps avg, 0.305 bit/pixel
    Аудио Rus: 48 kHz/24 bits, DTS, 3/2 (L,C,R,l,r) + LFE ch, ~1510.00 kbps
    Аудио Eng: 48 kHz/24 bits, DTS, 3/2 (L,C,R,l,r) + LFE ch, ~1510.00 kbps-

    Скриншоты

    MediaInfo

    Format : Matroska
    Format version : Version 4 / Version 2
    File size : 5.73 GiB
    Duration : 1h 21mn
    Overall bit rate : 10.0 Mbps
    Movie name : Clarkson: The Italian Job @ AlexFilm
    Encoded date : UTC 2015-05-20 05:37:47
    Writing application : mkvmerge v6.6.0 ('The Edge Of The In Between') built on Dec 1 2013 17:55:00
    Writing library : libebml v1.3.0 + libmatroska v1.4.1
    Video
    ID : 1
    Format : AVC
    Format/Info : Advanced Video Codec
    Format profile : High@L4.1
    Format settings, CABAC : Yes
    Format settings, ReFrames : 8 frames
    Codec ID : V_MPEG4/ISO/AVC
    Duration : 1h 21mn
    Bit rate : 7 028 Kbps
    Width : 1 280 pixels
    Height : 720 pixels
    Display aspect ratio : 16:9
    Frame rate mode : Constant
    Frame rate : 25.000 fps
    Color space : YUV
    Chroma subsampling : 4:2:0
    Bit depth : 8 bits
    Scan type : Progressive
    Bits/(Pixel*Frame) : 0.305
    Stream size : 3.90 GiB (68%)
    Writing library : x264 core 110 r1804 e89c4cf
    Encoding settings : cabac=1 / ref=8 / deblock=1:-3:-3 / analyse=0x3:0x113 / me=umh / subme=9 / psy=1 / psy_rd=1.00:0.00 / mixed_ref=1 / me_range=16 / chroma_me=1 / trellis=2 / 8x8dct=1 / cqm=0 / deadzone=21,11 / fast_pskip=0 / chroma_qp_offset=-2 / threads=12 / sliced_threads=0 / nr=0 / decimate=0 / interlaced=0 / constrained_intra=0 / bframes=6 / b_pyramid=2 / b_adapt=2 / b_bias=0 / direct=3 / weightb=1 / open_gop=0 / weightp=2 / keyint=250 / keyint_min=25 / scenecut=40 / intra_refresh=0 / rc=2pass / mbtree=0 / bitrate=7028 / ratetol=1.0 / qcomp=0.60 / qpmin=0 / qpmax=51 / qpstep=4 / cplxblur=20.0 / qblur=0.5 / ip_ratio=1.40 / pb_ratio=1.30 / aq=1:1.00 / zones=39916,39994,b=2.5 / 40111,40142,b=2.5 / 40166,40398,b=2.5 / 40889,40919,b=2.5 / 41528,41583,b=2.5 / 42254,42292,b=2.5/ 42463,42498,b=2.5/ 42558,42570,b=2.5 / 42632,42683,b=2.5 / 42757,42786,b=2.5 / 42909,42929,b=2.5 / 43152,43202,b=2.5 / 43363,43413,b=2.5 / 43574,43611,b=2.5 / 43901,43918,b=2.5 / 44053,44099,b=2.5 / 44185,44229,b=2.5 / 44383,44410,b=2.5 / 44566,44719,b=2.5 / 44907,44943,b=2.5 / 45081,45171,b=2.5 / 45286,45337,b=2.5 / 45356,45384,b=2.5 / 45402,45587,b=2.5 / 45705,45740,b=2.5 / 45974,46006,b=2.5 / 46149,46189,b=2.5 / 46490,46555,b=2.5 / 47819,47880,b=2.5 / 48059,48098,b=2.5 / 48111,48157,b=2.5 / 48166,48180,b=2.5 / 48221,48360,b=2.5
    Language : English
    Default : Yes
    Forced : No
    Audio #1
    ID : 2
    Format : DTS
    Format/Info : Digital Theater Systems
    Mode : 16
    Format settings, Endianness : Big
    Codec ID : A_DTS
    Duration : 1h 21mn
    Bit rate mode : Constant
    Bit rate : 1 509 Kbps
    Channel(s) : 6 channels
    Channel positions : Front: L C R, Side: L R, LFE
    Sampling rate : 48.0 KHz
    Bit depth : 24 bits
    Compression mode : Lossy
    Stream size : 881 MiB (15%)
    Title : DTS 5.1 AlexFilm
    Language : Russian
    Default : Yes
    Forced : No
    Audio #2
    ID : 3
    Format : DTS
    Format/Info : Digital Theater Systems
    Mode : 16
    Format settings, Endianness : Big
    Codec ID : A_DTS
    Duration : 1h 21mn
    Bit rate mode : Constant
    Bit rate : 1 509 Kbps
    Channel(s) : 6 channels
    Channel positions : Front: L C R, Side: L R, LFE
    Sampling rate : 48.0 KHz
    Bit depth : 24 bits
    Compression mode : Lossy
    Stream size : 881 MiB (15%)
    Title : DTS 5.1 Original
    Language : English
    Default : No
    Forced : No
    Menu
    00:00:00.000 : en:Chapter 1
    00:01:41.000 : en:Chapter 2
    00:06:41.720 : en:Chapter 3
    00:13:05.640 : en:Chapter 4
    00:14:35.320 : en:Chapter 5
    00:23:47.800 : en:Chapter 6
    00:25:08.840 : en:Chapter 7
    00:26:40.000 : en:Chapter 8
    00:32:15.040 : en:Chapter 9
    00:33:26.400 : en:Chapter 10
    00:41:49.600 : en:Chapter 11
    00:48:55.880 : en:Chapter 12
    00:54:38.320 : en:Chapter 13
    00:56:33.240 : en:Chapter 14
    01:00:52.120 : en:Chapter 15
    01:05:57.840 : en:Chapter 16
    01:08:31.080 : en:Chapter 17
    01:15:13.800 : en:Chapter 18
    01:20:34.720 : en:Chapter 19
    -Раздачи Top Gear в озвучке AlexFilm-
    Скачать .torrent

    Скачать торрент-файл бесплатно и на максимальной скорости!

    Как скачивать? · Что такое торрент? · Рейтинг и ограничения

    !ВНИМАНИЕ!
    Сайт не распространяет и не хранит электронные версии произведений, а занимается лишь лишь предоставлением доступа к создаваемому пользователями каталогу ссылок на торрент-файлы, которые содержат только списки хеш-сумм, убедительная просьба с жалобами обращаться напрямую к пользователю. Файлы для обмена на трекере предоставлены пользователями сайта, и администрация не несёт ответственности за их содержание. Просьба не заливать файлы, защищенные авторскими правами, а также файлы нелегального содержания!


    _________________
    [Профиль] [ЛС]
    Показать сообщения:    
    Ответить на тему

    Текущее время: Сегодня, в 00:07

    Часовой пояс: GMT + 2



    Вы не можете начинать темы
    Вы не можете отвечать на сообщения
    Вы не можете редактировать свои сообщения
    Вы не можете удалять свои сообщения
    Вы не можете голосовать в опросах
    Вы не можете прикреплять файлы к сообщениям
    Вы не можете скачивать файлы