BitTorrentTracker PerecTracker.org
BitTorrentTracker PerecTracker.org
    
Регистрация  ·  Вход
 
 · 
Забыли пароль?

  • Top Gear France / Топ Гир Франция / Сезон: 1 / Серии: 1-3 из 10 / RMC [2015, Франция, Авто-шоу, HDTVRip] MVO (Gears Media)

    Ответить на тему
     
    Автор Сообщение

    Light

    Создавать темы 15-Июл-2015 21:16

           

    [Цитировать]

    Top Gear France / Топ Гир Франция / Сезон: 1
    Страна: Франция
    Жанр: Авто-шоу
    Дата выпуска: 2015
    Продолжительность: ~ 01:22:00
    Перевод: Профессиональный (многоголосый закадровый) [Gears Media]
    Описание: Топ Гир — популярная английская телепередача, посвящённая автомобилям. Первые выпуски передачи появились в 1977 году. Эта передача была просто пересказ журнала, в течение долгого времени формат передачи не менялся. Тут же нам представлена французская версия всеми полюбившийся передачи.
    Семпл: http://sendfile.su/1105803
    Качество видео: HDTVRip
    Формат видео: AVI
    Видео: 720x400 (1.80:1), 25 fps, XviD build 50 ~1499 kbps avg, 0.21 bit/pixel
    Аудио: 48 kHz, AC3 Dolby Digital, 2/0 (L,R) ch, ~256 kbps

    MediaInfo

    Общее
    Полное имя : D:\Озвучка\gears media\Top.Gear\Top_Gear.France.S01.2015.HDTVRip.(Grears Media)\Top.Gear.France.2015.S01.E01.HDTVRip.Gears.Media.avi
    Формат : AVI
    Формат/Информация : Audio Video Interleave
    Размер файла : 1,01 Гбайт
    Продолжительность : 1 ч. 22 м.
    Общий поток : 1766 Кбит/сек
    Программа кодирования : VirtualDubMod 1.5.10.2 (build 2540/release)
    Библиотека кодирования : VirtualDubMod build 2540/release
    Видео
    Идентификатор : 0
    Формат : MPEG-4 Visual
    Профиль формата : Advanced Simple@L5
    Параметр BVOP формата : 2
    Параметр QPel формата : Нет
    Параметр GMC формата : Без точки перехода
    Параметр матрицы формата : Default (MPEG)
    Идентификатор кодека : XVID
    Идентификатор кодека/Подсказка : XviD
    Продолжительность : 1 ч. 22 м.
    Битрейт : 1500 Кбит/сек
    Ширина : 720 пикселей
    Высота : 400 пикселей
    Соотношение сторон : 16:9
    Частота кадров : 25,000 кадров/сек
    Цветовое пространство : YUV
    Субдискретизация насыщенности : 4:2:0
    Битовая глубина : 8 бит
    Тип развёртки : Прогрессивная
    Метод сжатия : С потерями
    Бит/(Пиксели*Кадры) : 0.208
    Размер потока : 880 Мбайт (85%)
    Библиотека кодирования : XviD 1.2.1 (UTC 2008-12-04)
    Аудио
    Идентификатор : 1
    Формат : AC-3
    Формат/Информация : Audio Coding 3
    Расширение режима : CM (complete main)
    Параметр Endianness формата : Big
    Идентификатор кодека : 2000
    Продолжительность : 1 ч. 22 м.
    Вид битрейта : Постоянный
    Битрейт : 256 Кбит/сек
    Каналы : 2 канала
    Расположение каналов : Front: L R
    Частота : 48,0 КГц
    Битовая глубина : 16 бит
    Метод сжатия : С потерями
    Размер потока : 150 Мбайт (14%)
    Выравнивание : Разделение по промежуткам
    Продолжительность промежутка : 40 мс. (1,00 видеокадр)
    Время предзагрузки промежутка : 500 мс.

    Скриншоты


    _________________
    [Профиль] [ЛС]
    Показать сообщения:    
    Ответить на тему

    Текущее время: Сегодня, в 22:10

    Часовой пояс: GMT + 2



    Вы не можете начинать темы
    Вы не можете отвечать на сообщения
    Вы не можете редактировать свои сообщения
    Вы не можете удалять свои сообщения
    Вы не можете голосовать в опросах
    Вы не можете прикреплять файлы к сообщениям
    Вы не можете скачивать файлы