BitTorrentTracker PerecTracker.org
BitTorrentTracker PerecTracker.org
    
Регистрация  ·  Вход
 
 · 
Забыли пароль?

  • Топ Гир / Top Gear / Сезон: 22 / Серии: 1-8 (8) / BBC [2015, Автошоу, HDTVRip] MVO (Jetvis Studio & RG.paravozik)

    Ответить на тему
     
    Автор Сообщение

    Light

    Создавать темы 15-Июл-2015 21:16

           

    [Цитировать]

    -Топ Гир | Top Gear-Год выпуска: 2015
    Страна: Великобритания
    Жанр: Автошоу
    Продолжительность: ~ 01:02:35-Перевод: Профессиональный (многоголосый закадровый) | - Jetvis Studio & RG.paravozik-В ролях: Джереми Кларксон, Ричард Хаммонд, Джеймс Мэй, Стиг-Описание: Топ Гир — популярная английская телепередача, посвящённая автомобилям. Первые выпуски передачи появились в 1977 году. Эта передача была просто пересказ журнала, в течение долгого времени формат передачи не менялся. Но в 2002 году, произошел перезапуск цикла, и вместо сухого пересказа, появился современный «Top Gear», с юмором, приколами, и фирменными тестами. Передачу стали вести Джереми Кларксон, Ричард Хаммонд, Джеймс Мэй и супер секретный водитель-испытатель Стиг. Аудитория программ в странах официальной трансляции составляет около 350 миллионов человек.--| Ссылка на предыдущие и альтернативные раздачи-Качество: HDTVRip
    Формат: AVI
    Видео: XviD, 720x400 (16:9), 23,976 fps, ~1600 kbps
    Аудио : AC3, 48 kHz, 2 ch, 192 kbps - Rus
    Субтитры: отсутствуют-

    Релиз

    Релиз: Jetvis Studio & RG.paravozik
    Озвучка: Jetvis Studio & RG.paravozik
    Роли озвучивали: Иван Назаров, Сергей Битюцкий, Михаил Вельмискин.
    А также: Григорий Декин

    MediaInfo

    Общее
    Полное имя                               : D:\загрузки\Top.Gear..S22.Jetvis.Studio\T0p.G3ar.s22e01.Jetvis.Studio.avi
    Формат                                   : AVI
    Формат/Информация                        : Audio Video Interleave
    Размер файла                             : 797 Мбайт
    Продолжительность                        : 1 ч. 1 м.
    Общий поток                              : 1801 Кбит/сек
    Программа кодирования                    : VirtualDubMod 1.5.10.2 (build 2540/release)
    Библиотека кодирования                   : VirtualDubMod build 2540/release
    Видео
    Идентификатор                            : 0
    Формат                                   : MPEG-4 Visual
    Профиль формата                          : Advanced Simple@L5
    Параметр BVOP формата                    : 2
    Параметр QPel формата                    : Нет
    Параметр GMC формата                     : Без точки перехода
    Параметр матрицы формата                 : Выборочная
    Идентификатор кодека                     : XVID
    Идентификатор кодека/Подсказка           : XviD
    Продолжительность                        : 1 ч. 1 м.
    Битрейт                                  : 1599 Кбит/сек
    Ширина                                   : 720 пикселей
    Высота                                   : 400 пикселей
    Соотношение сторон                       : 16:9
    Частота кадров                           : 25,000 кадров/сек
    Цветовое пространство                    : YUV
    Субдискретизация насыщенности            : 4:2:0
    Битовая глубина                          : 8 бит
    Тип развёртки                            : Прогрессивная
    Метод сжатия                             : С потерями
    Бит/(Пиксели*Кадры)                      : 0.222
    Размер потока                            : 708 Мбайт (89%)
    Библиотека кодирования                   : XviD 1.2.1 (UTC 2008-12-04)
    Аудио
    Идентификатор                            : 1
    Формат                                   : AC-3
    Формат/Информация                        : Audio Coding 3
    Расширение режима                        : CM (complete main)
    Параметр Endianness формата              : Big
    Идентификатор кодека                     : 2000
    Продолжительность                        : 1 ч. 1 м.
    Вид битрейта                             : Постоянный
    Битрейт                                  : 192 Кбит/сек
    Каналы                                   : 2 канала
    Расположение каналов                     : Front: L R
    Частота                                  : 48,0 КГц
    Битовая глубина                          : 16 бит
    Метод сжатия                             : С потерями
    Размер потока                            : 85,0 Мбайт (11%)
    Выравнивание                             : Разделение по промежуткам
    Продолжительность промежутка             : 40  мс. (1,00 видеокадр)
    Время предзагрузки промежутка            : 500  мс.

    Скриншоты

    Содержание

    Серия 1
    Ведущие Топ Гир отправляются в Санкт-Петербург для невероятной гонки. Что быстрее? Велосипед, автомобиль, судно на воздушной подушке или общественный транспорт?
    Новый Lamborghini Huracan в обзоре Ричарда Хаммонда.
    Звезда в бюджетном авто - Эд Ширан.
    Серия 2
    Великое путешествие по северу Австралии на BMW M6 Gran Coupe, Bentley Continental GT V8 и Nissan GT-R.
    Звезда в бюджетном авто - Кифер Сазерленд, звезда сериала "24".
    Серия 3
    Джереми, Ричард и Джеймс проводят исследования с целью улучшения машин скорой помощи.
    Звезда в бюджетном авто - Даниэль Риккардо, гонщик Формулы-1.
    Серия 4
    Новые BMW M3 и BMW i8 в обзоре Джереми Кларксона.
    Ричард Хаммонд с ностальгией тестирует Land Rover Defender.
    Джеймс Мэй проверяет на треке новый 500-сильный Mercedes-AMG GT.
    Звезды в бюджетном авто - актриса Марго Робби, снявшаяся в "Волк с Уолл-стрит", и голливудская суперзвезда, Уилл Смит.
    Серия 5
    Компания Peugeot в ностальгическом обзоре Джереми и Джеймса.
    Ричард сравнивает на треке Porsche Cayman GTS и Chevrolet Corvette.
    Джеймс на дорогах Италии тестирует сенсационный 950-сильный гибридный гиперкар - LaFerrari.
    Звезда в бюджетном авто - английский певец, Олли Мёрс.
    Серия 6
    Спасательная операция Джереми и Джеймса по вызволению Хаммонда из вечных льдов Канады.
    Lexus RC F и Lexus LFA на треке в обзоре Кларксона.
    Звезда в бюджетном авто - Джиллиан Андерсон.
    Серия 7
    Джеймс участвует в ралли на 600-сильном хэтчбеке.
    Джереми тестирует на треке последний Jaguar F-type R и модернизированный Jaguar E-type, названный Eagle Low Drag GT.
    Ричард в Испании испытывает новехонькую версию легендарной Mazda MX-5.
    Звезда в бюджетном авто - Николас Холт, английский актер.
    Серия 8
    Троица выбирает идеальные классические кабриолеты для английского лета. Соревнование купленных внедорожников
    Отменные эпизоды Хаммонд на треке в Subaru WRX и VW Golf R., Джереми на трех роскошных лимузинах.
    Звезда в бюджетном авто - английский футболист и комментатор Гари Линекер.
    Скачать .torrent

    Скачать торрент-файл бесплатно и на максимальной скорости!

    Как скачивать? · Что такое торрент? · Рейтинг и ограничения

    !ВНИМАНИЕ!
    Сайт не распространяет и не хранит электронные версии произведений, а занимается лишь лишь предоставлением доступа к создаваемому пользователями каталогу ссылок на торрент-файлы, которые содержат только списки хеш-сумм, убедительная просьба с жалобами обращаться напрямую к пользователю. Файлы для обмена на трекере предоставлены пользователями сайта, и администрация не несёт ответственности за их содержание. Просьба не заливать файлы, защищенные авторскими правами, а также файлы нелегального содержания!


    _________________
    [Профиль] [ЛС]
    Показать сообщения:    
    Ответить на тему

    Текущее время: Сегодня, в 06:59

    Часовой пояс: GMT + 2



    Вы не можете начинать темы
    Вы не можете отвечать на сообщения
    Вы не можете редактировать свои сообщения
    Вы не можете удалять свои сообщения
    Вы не можете голосовать в опросах
    Вы не можете прикреплять файлы к сообщениям
    Вы не можете скачивать файлы