BitTorrentTracker PerecTracker.org
BitTorrentTracker PerecTracker.org
    
Регистрация  ·  Вход
 
 · 
Забыли пароль?

  • Народные автомобили с Джеймсом Мэем / James May\'s Cars of the People (A Top Gear Special) / Серии 1-3 (3) [2014 г., UK, Автопередача, WEB-DL 1080p] VO и MVO (AlexFilm)

    Ответить на тему
     
    Автор Сообщение

    Light

    Создавать темы 15-Июл-2015 21:16

           

    [Цитировать]

    -Народные автомобили с Джеймсом Мэем
    James May's Cars of the People

    3 серии
    --Год выхода: 2014
    Страна: Великобритания
    Жанр: Автопередача
    Продолжительность: 3 х ~ 59 мин
    Озвучание 1 и 3 серий: профессиональное одноголосое закадровое (AlexFilm)
    Озвучание 2 серии: профессиональное многоголосое закадровое (AlexFilm)
    Субтитры: нет-Режиссёр: Том Уиттер (Tom Whitter)
    В ролях: Джеймс Мэй (James May)-Описание: Джеймс Мэй из "Топ Гир" представляет документальную передачу о "народных автомобилях". Рассказывая обо всех массовых машинах - от Жука до Кей-кара, - Мэй изучает их происхождение и влияние на историю. Каждый эпизод посвящён определённой теме: автомобили диктатур, микрокары и машины, о которых мы мечтаем. Мэй ездит на различных машинах, проводя их мини-тесты и рассказывая о них. Кроме того, Мэй путешествует по всему миру, посещая те его уголки, которые стали родиной автомобиля, за рулём которого он находится, где также проводит небольшие испытания и тесты.-Релиз:
    Перевод: Константин Кривоногов
    Монтаж и сведение звука: Сергей Мартынов
    Озвучивание: Константин Погодаев, Роман Сопко (2), Татьяна Манетина (2)- -Качество видео: WEB-DL 1080p (Amazon)
    Формат: MKV
    Видео: 1920x1080 (16:9), 25 fps, MPEG-4 AVC, ~10000 kbps avg, 0.193 bit/pixel
    Аудио Rus: 48 kHz, AC3 Dolby Digital, 2/0 (L,R) ch, ~192.00 kbps
    Аудио Eng: 48 kHz, AC3 Dolby Digital, 2/0 (L,R) ch, ~192.00 kbps-

    Скриншоты

    MediaInfo

    Format : Matroska
    Format version : Version 4 / Version 2
    File size : 4.27 GiB
    Duration : 59mn 6s
    Overall bit rate mode : Constant
    Overall bit rate : 10.3 Mbps
    Movie name : James May's Cars of the People E01 @ AlexFilm
    Encoded date : UTC 2015-07-10 15:09:57
    Writing application : mkvmerge v6.6.0 ('The Edge Of The In Between') built on Dec 1 2013 17:55:00
    Writing library : libebml v1.3.0 + libmatroska v1.4.1
    Video
    ID : 1
    Format : AVC
    Format/Info : Advanced Video Codec
    Format profile : High@L4
    Format settings, CABAC : Yes
    Format settings, ReFrames : 4 frames
    Format settings, GOP : M=2, N=50
    Codec ID : V_MPEG4/ISO/AVC
    Duration : 59mn 6s
    Bit rate mode : Constant
    Bit rate : 10 000 Kbps
    Width : 1 920 pixels
    Height : 1 080 pixels
    Display aspect ratio : 16:9
    Frame rate mode : Constant
    Frame rate : 25.000 fps
    Standard : PAL
    Color space : YUV
    Chroma subsampling : 4:2:0
    Bit depth : 8 bits
    Scan type : Progressive
    Bits/(Pixel*Frame) : 0.193
    Stream size : 4.03 GiB (94%)
    Language : English
    Default : Yes
    Forced : No
    Color range : Limited
    Color primaries : BT.709
    Transfer characteristics : BT.709
    Matrix coefficients : BT.709
    Audio #1
    ID : 2
    Format : AC-3
    Format/Info : Audio Coding 3
    Mode extension : CM (complete main)
    Format settings, Endianness : Big
    Codec ID : A_AC3
    Duration : 59mn 6s
    Bit rate mode : Constant
    Bit rate : 192 Kbps
    Channel(s) : 2 channels
    Channel positions : Front: L R
    Sampling rate : 48.0 KHz
    Bit depth : 16 bits
    Compression mode : Lossy
    Stream size : 81.2 MiB (2%)
    Title : DD2.0 AlexFilm
    Language : Russian
    Default : Yes
    Forced : No
    Audio #2
    ID : 3
    Format : AC-3
    Format/Info : Audio Coding 3
    Mode extension : CM (complete main)
    Format settings, Endianness : Big
    Codec ID : A_AC3
    Duration : 59mn 6s
    Bit rate mode : Constant
    Bit rate : 192 Kbps
    Channel(s) : 2 channels
    Channel positions : Front: L R
    Sampling rate : 48.0 KHz
    Bit depth : 16 bits
    Compression mode : Lossy
    Stream size : 81.2 MiB (2%)
    Title : DD2.0 Original
    Language : English
    Default : No
    Forced : No
    -Раздачи Top Gear в озвучке AlexFilmРаздачи James May's Cars of the People в озвучке AlexFilm-

    _________________
    [Профиль] [ЛС]
    Показать сообщения:    
    Ответить на тему

    Текущее время: Сегодня, в 23:55

    Часовой пояс: GMT + 2



    Вы не можете начинать темы
    Вы не можете отвечать на сообщения
    Вы не можете редактировать свои сообщения
    Вы не можете удалять свои сообщения
    Вы не можете голосовать в опросах
    Вы не можете прикреплять файлы к сообщениям
    Вы не можете скачивать файлы